&title=屋根裏の少女
&artist=Sound Horizon
&first=0
&des=yksetuna
&lv_5=13+
&inote_5=(142){1},,
{16}2h[16:3]/5,,,4h[16:3],,,5,,7h[16:3]/4,,,5h[16:3],,,4,,
{16}2h[16:3]/5,,,4h[16:3],,,5,,7h[16:4]/4,,{24}5-8[8:1],4,3,{16}2,,5,,
{16}3,,,2,,,1,,6/8^3[8:1],,,7,,,8,,
{16}1^6[8:1]/3,,,2,,,1,,6/8-4[8:1],,7,,1/8,,,,
{16}3h[16:3]/5,,,4,3,,5,,6h[16:3]/4,,,5,6,,4,,
{16}3h[16:3]/5,,,4,3,,5,,4/6,,{24}4,3,2,1,,,3/4,,,
{16}6-1[8:1]/4,,,5,6,,4,,3-8[8:1]/5,,,4,3,,5,,
{16}6-1[8:1]/4,,,5,6,,4,,5-1[8:1]/3,,{24}2,3,4,5,,,7h[8:1],,,
{16}8,,5/6,,7/8,,6,5,,3,4,,5/6,,3/4,,
{16}12,,4/3,,2/1,,3,4,,6,5,,4/3,,6/5,,
{16}7,8,7,,5/6,,3,4,,6,5,,7-3[8:1]/8-4[8:1],,1/6,,
{8}7/8,,,2/5,2-6[8:1]/5^8[8:1],,2/5,,
{16}3/1-5[8:1],,2,,1/8,,7,7h[8:1],,6,6h[8:1],,5,,5,,
{16}6/8-4[8:1],,7,,8/1,,2,2h[8:1],,3,3h[8:1],,4,,3,,
{16}2/4-8[8:1],,3,,4/5,,6,6h[8:1],,7,7h[8:1],,8-5[8:1],,1,,
{8}2/8,,,7/4,7-3[8:1]/4^1[8:1],,7b/4b,,
{4}5-1[8:1]/2h[4:15],,6-1[8:1],,5-1[8:1],,6-1[8:1],,5-1[8:1],,6-1[8:1],,5-1[8:1],,6,6,
{16}7/8,,,65,,,4^1[4:1],7,,,7,,6,,5,,4,,,,,,3,4,3,,4/5,,5/6,,,,
{16}7/8,,,65,,,4^1[4:1],7,,,7,,6,,5,5^8[2:1],,,,,,,,,,,,,4b,,,,
{16}1/2-5[8:1],,,,1/2,,,6,8-4[8:1],,7,,1/8,,,,2-7[8:1],,,,5,,,6,5-2[8:1],,8,,6/5,,,,
{16}8/7-4[8:1],,,,8/7,,,3,1-5[8:1],,2,,8/1,,,,7-2[8:1],,,,4,,,3,4-7[8:1],,1,,3/4,,,,
{16}2h[16:3],,,1-4[8:1],,,8,1,,,8,,7,,6,,5h[8:3],,,,,,2,4,3,,4/5,,5/6,,,,
{16}7h[16:3],,,8-5[8:1],,,1,8,,,1,,2,,3-6[8:5],3h[16:13],,,,,,,,,,,,,,,3,3,
{16}4,2,6,6,5,7,3,4,{24}2,3,2,3,2,3,{8}2,1/8,
{16}2/1b,,3-8[8:1],1,,1,3,,7,,6-1[8:1],8,,8,6,,{8}2-5[8:1],3,6-1[8:1],7,4-8[8:1],3,4/5,6,
{16}1/7,,8^5[8:1],2,,2,8,,1,,8^3[8:1],6,,6,8,,{8}7,{24}2,8,2,8,,,{8}1-5[8:1],7-3[8:1],1,7,,
{16}4/6,,6-1[8:1],8,,8,6,,2,,3-8[8:1],1,,1,3,,{8}7-4[8:1],6,3-8[8:1],2,5-1[8:1],6,5/4,3,
{16}8/2,,1^4[8:1],7,,7,1,,8,,1^6[8:1],3,,3,1,,{8}2,{24}7,1,7,1,,,{8}8-4[8:1],4-8[8:1],,2b,,
{8}3/5,5/7,1/4,{16}3^6[8:1],1,,1,3-8[8:1],,7,,35,,
{16}4^7[8:1],,7^2[8:1],,1,,3,3,,4,4^1[8:1],,5/6,,4,,
{16}7,8,7h[8:1],,5,6,4,5,,6,5,,4,5,3,,
{8}5-2[8:1],6,{16}5/7,,8,8h[8:1],,1,1h[8:1],,4,3,5,,
{8}6/4,4/2,8/5,{16}6^3[8:1],8,,8,6-1[8:1],,2,,64,,
{16}5^2[8:1],,2^7[8:1],,8,,6,6,,5,5^8[8:1],,4/3,,5,,
{16}2,1,2h[8:1],,4,3,5,4,,3,4,,5,4,6,,
{8}4-7[8:1],3,{16}4/2,,1,1h[8:1],,8,8h[8:1],,5,6,4,,
{16}3/5h[8:6],,,,3,,4,4h[16:5],,,,,,,,,
{16}2/5h[8:6],,,,2,,3,3h[16:5],,,,,,,,,
{16}1/5h[8:5],,,,1,,2,2,,,3,,4,,3/5,,
{8}3/5h[8:3],,3,4,4h[8:3]/6,,7,7,
{16}6/4h[8:6],,6,,6,,5,5h[16:5],,,,,,,,,
{16}7/4h[8:6],,7,,7,,6,6h[16:5],,,,,,,,,
{16}8/4h[8:5],,8,,8,,7,7,,,6,,3,5,4,4,
{16}3,5,4,4,4,4,3,5,4,4,4,4,3b,,,,
{16}3h[16:3]/8,,,1h[16:3],,,8,,6h[16:3]/1,,,8h[16:3],,,1,,
{16}3h[16:3]/8,,,1h[16:3],,,8,,6h[16:2]/1,,{24}8-5[8:1],7,1,{16}8,,2,,
{16}2,,,3,,,4,,7/5^2[8:1],,,6,,,5,,
{16}4^7[8:1]/2,,,3,,,4,,7/5-1[8:1],,6,,4/5,,,,
{16}2h[16:3]/8,,,1,2,,8,,7h[16:3]/1,,,8,7,,1,,
{16}2h[16:3]/8,,,1,2,,8,,1/7,,{24}7,1,7,1,,,2/8,,,
{16}7-4[8:1]/1,,,8,7,,1,,2-5[8:1]/8,,,1,2,,8,,
{16}7-4[8:1]/1,,,8,7,,1,,5-1[8:1]/2-6[8:1],,,,,,,,
{16}8/4,,7-2[8:1],5,,5,7,,4,,{16}3-6[8:1],1,,1,3,,{8}8-4[8:1],1,2/8,1,6/8,{24}7-4[8:1],5,7,5,,,7/8,,,
{16}2,,3-8[8:1],1,,4,3,,5,,6-1[8:1],8,,5,6^3[8:1],,4,,{24}2,1,8,{8}7-4[8:1],8,7/1-6[8:1],2,1/3,2,
{16}1/5,,2-7[8:1],4,,4,2,,5,,{16}6-3[8:1],8,,8,6,,{8}1-5[8:1],8,7/1,8,3/1,{24}2-5[8:1],4,2,4,,,2/1,,,
{16}7,,6-1[8:1],8,,5,6,,4,,3-8[8:1],1,,4,3^6[8:1],,5,,{24}7,8,1,{8}2-5[8:1],1,
{4}2/8-4[8:1],8b/7^2[2:3],
