&title=夢と色でできている
&artist=佐咲紗花
&first=-0.065
&lv_5=13+
&des_5=Ic_
&inote_5=
(167){4},,,,,,{2}7-2<1-5<6[2:3],
,,,6-2<3[2:3],
{8},,,5q4[8:5],,,,,,,,,{2}2qq1-4<5[8:11],
{8},,,6-3[2:1],,,,,,,,2x/8x,
,7,6,{16}3,4,
{8}3,2,{4}1h[4:1]/7-5[8:1],7,{8}3,{16}6,5,
{8}6,7,{4}8/2,{8}4/5,{16}6,5,{8}6,{16}3,4,
3,4,{8}3,5/3,6,7/5,{16}3,4,{8}3,{16}6,5,
6,5,{8}6,6/4,3,2/4,{16}2,1,{8}2,{16}7,8,
7,8,{8}7,7/1,2,3/5,{16}7,8,{8}7,1/8,
{16}7,2,7,2,6,3,6,3,5x/4x,,,5,{8}3/5,2-8[8:1],
,5/2,{4}6,3/5,{8}6/2,7-1[8:1],
,7/4,{4}3,{16}5/3,,,4,{8}4/6,7-5[8:1],
,7/1,{4}2,4/7,{8}3/5,2-4[8:1],
,2/8,{4}7,{16}6/4,,,7,{8}2/7,1-3[8:1],
,1/5,{4}6,5/3,{8}7/2,8-6[8:1],
,8/4,{4}3,{16}5/3,,,2,{8}7/2,8-6[8:1],
,8/5,{4}4,3/5,{8}7/2,1-3[8:1],
,1/4,{4}5,{16}3/6,,,7,{8}5/7,4-2[8:1],
,4/8,{4}7,{16}3/6,,,2,{8}2/4,5-7[8:1],
,5/1,{4}2,{16}4/6,,,3,{8}8/3,1-6[8:1],
,1/4,{4}3,{16}3/5,,,6,{8}6/1,8-3[8:1],
,8/5,{4}6,3/7,{8}2,1>3[8:1],
,6/1,{4}7<5[8:1],1/7,{8}1,2-4[8:1],
,1/2,{4}8-6[8:1],{16}4/8,,,2,{8}2,5-8[8:1],
,5/4,{4}3,{16}7/4,,,6,{8}6/1,2,
3,{16}5,4,5,4,5,4,{8}5,{16}3,4,{8}3,{16}5,4,
{8}5,{16}3,4,{8}3,{16}5,5,{8}4,{16}3,3,{8}4,{16}6,6,
{8}4,{16}2,2,{8}4,5,6/3,{16}6,5,{8}6,{16}4,5,
{8}4,{16}6,5,{8}6,{16}4,4,{8}5,{16}6,6,{8}5,{16}3,3,
{8}5,{16}7,7,{8}5,4,{4}5/3-1[8:1],{8}3,7,
,7-4[8:1],8,7,,2x-5[8:1],1,2x,
,8,7,3/6,,4/5,3/6,2/7,
3/6,2/7,1/8,2/7,{16}1,8,2,7,4,5,2,7,
{8}1,1w5[8:1]/8w4[8:1],2/7,8b/1b/Cf,,,2,2-7[8:1],
7-2[8:1],2>5[8:1],5<2[4:1],7h[4:1],,,4,4-6-2[16:3],
,1-4[8:1]*-5[8:1],,1b/Cf,,,7,7-4[8:1],
4-7[8:1],7-2[8:1],2-5-8[4:1],3h[4:1],,,1-3-5-7[16:5],1,
,8w4[8:1],,8b/Cf,,,6/1,7-4[8:1],
8-3-6<4[8:5],7,8,5h[4:1],,,6,7-2[8:1]*-4[8:1],
,7,,3,,2-5[8:1],5-8[8:1],2,
,7-4[8:1],4-1[8:1],7,,5-8[8:1],8-3[8:1],5,
,7w3[8:1],,7b/Cf,,,7,7-2[8:1],
2-7[8:1],7<4[8:1],4>7[4:1],2h[4:1],,,4,4-2-6[4:1],
,8-5[8:1]*-4[8:1],,8b/Cf,,,2,2-5[8:1],
5-2[8:1],2-7[8:1],7-5-3-1[4:1],8h[4:1],,,6-4-8[4:1],6,
,2w6[8:1],,2b/Cf,,,3/8,1-6[8:1],
2-5-8<2[8:5],1,2,7h[4:1],,,1,1-6[8:1]*-4[8:1],
,1,,8-6-3[4:1],,3-8[8:1],8-5[8:1],1,
,2h[4:1],,1-7-4[4:1],,4-2[8:1],2-6[32:5],1,
,3h[8:3],,,8-3[8:1],{16}4,4,{8}8-5[8:1],{16}4,4,
{8}8,3,2,1/7,1-6[8:1],{16}5,5,{8}1-4[8:1],{16}5,5,
{8}1,6,7,2/8h[4:1],,2-7[8:1],7-4[8:1],2,
,1qq4>5[8:7],,1,,,,,{2}3h[4:1],
{8}4-1[8:1],8-5[8:1],4,8,
,8-3[8:1],6,8,,1-6[8:1],3,1,
,1,2,3,4/5,{16}4,5,4,5,3,6,
2,7,1,8,3,6,4,5,2,7,4,5,3,7,{8}1b/8b,
,,,,7<5[8:1],5>3[8:1],3>1[8:1],1q7[4:1],
,4,3,2<3[8:5],,,,,,,,,2>4[8:1],
4<6[8:1],6<8[8:1],8p2[4:1],
,5,6,7,8/1,{16}2,7,3,6,4,7,
{8}3,8/2,7,6,4/7,2-5[8:1],1,2,
,7-4[8:1],8,7,,3-8[8:1],4,3,
,6-1[8:1],5,6,,2-8[8:1],8-4[8:1],2,
,7-5[8:1],5-1[8:1],7,,3,{16}4,8,4,8,
2,6,2,6,{8}1,2,3/8,{16}6,5,7,5,{8}6,
{16}3,4,{8}3,5,6,7/4,{16}3,4,2,4,{8}3,
{16}6,5,{8}6,4,3,2/5,{16}2,1,3,1,{8}2,
{16}7,8,{8}7,1,2,3/5,{16}7,8,6,8,{8}7,
{16}2,1,{8}2,7,6,5/3,{16}6,5,7,5,{8}6,
{16}2,1,{8}2,8,7,6/4,{16}3,4,2,4,{8}3,
{16}7,8,{8}7,1,2,3/5,{16}6,5,7,5,{8}6,
{16}3,4,{8}3,8,7,3/6,{16}4,5,4,5,{8}4,
6/3,1bw5b[8:1]/8bw4b[8:1],2b/7b,8b/1b/Cf/E7/B6/B7/B2/B3/E3,
E
