&title=Ultimate taste
&artist=ぱらどっと
&first=0.03
&des=NaOH
&clock_count=4
&lv_5=14
&inote_5=(200)
{4},,,,
{8}E8/B8/B7,,,,B1/E2/B2,,,B5/B4/E5,,,E7,,C,,E3,,
D8/E8,,D7/E7,,D6/E6,,4,4h[4:1],,5,5,,3-6[8:1]/6-3[8:1],,,,
12,,23,,34,,45,4/5h[4:1],,6,6-2[8:1],,7,,8,,
1,2,3,4,56,{16}4,5,4,,3,,3h[4:2],,,,6bqq1b[8:3],,,,,,,,E3f,,,,
(200){4}
8x-3[8:1]/2xh[8:1],2h[8:1],1-6[8:1]/3h[8:1],4h[8:1],
2-6[8:1]/8h[8:1],7h[8:1],{8}8,17,2h[8:1]/6h[8:1],,
5-8[8:1]/3h[8:1],,2h[8:1]/5,,4-7[8:1]/3h[8:1],,2h[8:1]/4,,
1-4[8:1]/6h[8:1],,8h[8:1],,6,27,1-4b[8:1]/8,,
(200){4}
1x-6b[8:1]/8x,1x>4b[8:1]/2x,1x<6b[8:1]/8x,1x-4b[8:1]/2x,
1x-6b[8:1]/8x,1x/2x,{8}2,3,4p7b[8:1],,
5q2b[8:1]/4,,3^8b[8:1]/5,,5<8b[8:1]/3,,2qq2>5b[8:4]/5,,2x/6xh[4:1],,,,
{16}7,8,1,2,3,4,5,6,
(200){16}
7b/1b,,2,,3,,4>1[8:1]/5,,,,5,,6,,7<4[8:1],,,,3,,2,,1,,8-4[8:1],1,2,3,48,,,,
1h[8:1],,3h[8:1],,5h[8:1],,7h[8:1],,1h[8:1],,7,6,5,,34,,
2h[8:1],,3,,4h[8:1],,3,,2-7[8:1],,,,2b/3b,,,,
(200){4}
3^6p2^7[4:3],6,1,7-5-8-4-1[4:4],A5,A8,A6,A7,{8}6,6,5,5,
3h[4:1]/4,{24}1x,8x,7x,6x,,,4x/5x,,,{16}3x,4,3,4,2x,5,2,5,1x,6,1,6,8x,7,8,7,
{4}
1bxq4[4:12]/Cf,,,,,,,,,,,,,,,,
45,5,C/5,5,36,6,B1/B2/6,6,
37,7,E1/D1/7,7,48,8,E5/B4/B5/8-5[8:1],,
{12}E2,E3,E4,E6,E7,E8,A2,A3,A4,A6,A7,A8,
2,3,4,5,6,7,8x-4[8:1]/1xh[4:1],,,,,,
2,3,4,7,6,5,1,2,3,8,7,6,3,4,3,6,5,6,
{16}4b,,,7b/8b,,,1b/2b,,
{4}1bx^2^3^4^5^6^7^8^1-4-7-2-5-8-3-6-1b[4:17]/2bxh[4:18]
,,,,,,,,,,,,,,,,,,,,
{64},
(132){8}
4x-1[8:1]/5x,,45,6,{16}7,8,7,8,7,8,6h,5,7,8,5h,4,
7,8,4h,3,4-7[8:1],,7^8v5[6:1]/1,,34,,2,,1b-4[8:1],,,,
18,,7,,3,4,3,4,3,4,2h,1,3,4,1h,8,3,4,8h,7,3w7[8:1],,15,,3b,,,,
(132){16}
3xh[4:1],,4,,4,3h[8:1],,5,5,,45,,6,5,6,,
6h[4:1],,5,,5,6h[8:1],,4,4,,54,,3,4,3,,
24,,25,,26,,27,,8,,58,,48,,38,,2,8,4,8,2,8,4,8,2-6[8:1],8,4,8,2b,,,,
(140){16}
48,,7,5,6,,2,4,3,5,4-1[8:1],6,5,7,4,,
6,,5,6,5,,7,4,6,5,8-5[8:1],3,1,2,8,,
1,,1,,24,,24,,35,,4,4,6,,57,,
2h[16:1]/8h[16:1],,4h[16:1]/6h[16:1],,1h[16:1]/7h[16:1],,3h[16:1]/5h[16:1],,
8<5[8:1],,,,8b/1b,,,,
(150){16}
3xh,5,4,5,4,5,4,5,8xh,6,5,6,5,6,5,6,7xh,5,4,5,2xh,5,4,5,2xh,4,6,4,2x,4,6,4,
2x,2,4,4,5,5,7,7,1x,1,3,3,5,5,7,7,
{32}1x,2,3,4,8x,7,6,5,1x,2,3,4,8x,7,6,5,1b,2,3,4,5,6,7,8,
(150){4}
1b>4[8:1]/5b,1<6[8:1],5-1[8:1]/1,5<8[8:1]`5!>2b[8:1],5pp8[4:1],1-4[8:1]/5,
1<6[8:1],1>4b[8:1],7-2[8:1]/1,3-6[8:1]/7,7-4[8:1]/3,3-8b[8:1]/7,
6^3[8:1]/3,1V75[8:1]`1!V35b[8:1],1,{16}28,,2b/6,2b/6,2b/6-1[8:1],,,,
(150){16}
3b,,4,4,6bh[8:1],,8,8,7bh[8:1],,1,1,7,5,8,6,
1bh[8:1],,5,5,7bh[8:1],,4,4,1bh[8:1],,3,3,7,6,8,1,
8-4[8:1],,2,,8<5[8:1],,1,,8-4[8:1],,2,2,8-6[8:1],,1,,8-2[8:1],,3,,
8<5[8:1],,5>2[8:1],,2p8b[4:1],,,,,,,,
(150){32}
4xh[4:1],,,,,,,,8,7,6,5,8,7,6,5,4bh[4:1],,,,,,,,1,2,3,4,1,2,3,4,5bh[4:1],,,,,,,,
{24}8,1,2,3,4,5,6b<3[4:1],,,,,,Cf,,,,,,
{32}
4xh[4:1],,,,,,,,7,6,5,4,3,2,1,8,7bh[4:1]/2,,,,,,,,{16}1,2,3,4,
{8}5/6h[8:1],7h[8:1],8h[8:1],1h[8:1],2h[8:1],3h[8:1],4h[8:1],5h[8:1],
(150){32}
6xh[4:3],,,,,,,,A1,B1,C,B5,A5f,,,,A7,B7,C,B3,A3f,,,,A8,B8,C,B4,A4f,,,,
3xh[4:3],,,,,,,,A8,B8,C,B4,A4f,,,,A2,B2,C,B6,A6f,,,,A1,B1,C,B5,A5f,,,,
6xh[4:3],,,,,,,,A1,B1,C,B5,A5f,,,,A7,B7,C,B3,A3f,,,,A8,B8,C,B4,A4f,,,,
{4}2xpp2<3[4:2],2x,Cf,,
(160){16}
2x/7x,,,,8-5[8:1],,5^6-1[6:1],,8,,2,,3,3,,4,3,5-2[8:1],2,,
5b/6b,,,,7,7,8,8,6q4[6:1],1,5,2,6b,,,,3,3,5,5,4,6,4,6,
5,7,5,7,6,5,4,3,6,5,4,3,2b/E7f,,,8b/E3f,,,4b/5b,,
(160){16}
5xh[8:1],,4,4,5h[8:1],,B1/E2,,5h[16:3],4,,4,5h[8:1],,B3/E4,,
4xh[8:1],,5,5,4h[8:1],,B8/E8,,4h[16:3],5,,5,4h[8:1],,B6/E6,,
5xh[8:1],,4,4,5h[8:1],,B1/E2,,5h[16:3],4,,4,5h[8:1],,B3/E4,,
5,6,7,8,A1,A2,A3,A4,1,2,3,4,5b/Cf,,,,
(80){4}
3xpp4[4:1],8,8xqq7[4:1],1,
{8}1h[12:1],2h[12:1],3h[12:1],4h[12:1],5p6[4:1],A4,A3,A2f/B2,
(170){8}
1x>4[4:1],,4-8-2[4:1],,7,8x<5[8:1],,4v7[8:1]/8,,3,2,,1-4[8:1]*-6[8:1],,1,,
7<3[4:1],,3-8-6[4:1],,2,1x>4[8:1],,5v2[8:1]/1,,6,7,,8V64[8:1]`8!V24b[8:1],,,,
(180){16}
2,,34,,5,4,,3,4<7[8:1],,3,,1>4[8:1],,,,8,,7,,6,5,,4,5,,46,,37,,,,
2,,2,,8,,8,,7h[4:1],,{24}E2,B2,B3,E4,,,{8}6q7[4:2],5,,,,,,,,
(200){4}
3>5p4-2-8-6-4b[4:13]/Cf,,,,,,,,,,,,,,,,12,23,34,45,56,67,78,81,
{8}1,8,2,7,3,6,4,5,{16}3,4,,7,5,6,,2,1p5[8:1]*q5[8:1],,8,,1b,,,,
1-6[8:1]/8,,2,,1,,,,2-5[8:1],,5-3^8-4b[32:10],,2,,6,,,,5,,6,,7,,
8-5[8:1],,5V71[6:1],,8,,,,
2,,2h[8:1],,4,,4h[8:1],,1h[8:1],,{24}8,7,6,5-2[8:1],,,{8}2V47b[6:1],
5,8,1,2,3/8<5[8:1],,{16}4,3,2,1,
8b>3[8:1]/5bx,,6,,8,,,,7<4[8:1],,4q8^2-6b[32:10],,7,,3,,,,4,,3,,2,,
1-4[8:1],,4-2^7[6:1],,1,,,,
6,,6h[8:1],,5,,5h[8:1],,4h[8:1],,{24}8,1,2,3,,,25,,,{32}
1,2,3,4,5,6,7,8,1,2,3,4,5,6,7,8,1,2,3,4,5,6,7,8,1b/Cf,,,,,,,,
{8}7v4[8:1],4V61[6:1],7,,2,3,4>8[6:1],56,,7,6,5,{24}1-5b[8:1],2,3,7,6,5,1,,,,,,
{16}
26,,26,,37,,37,,27,,{24}18,27,36,45,,,36,,,
{32}8bh[8:1]/1b,2,3,4,5,,,,2bh[8:1]/8b,7,6,5,4,,,,1b,2,3,4,7b,6,5,4,1b,B1f,,,,,,,
{8}7x/5x,7x/5x,74,73,46,46,36,26,35,35,25,15,42,42,41,48,
{16}8,4,8,4,1,5,1,5,2,6,3,7,4,8,5,1,
{32}4bx,3,2,1,8,7,6,5,4b,3,2,1,8,7,6,5,E1/4bx,E2,E3,E4,E5,E6,E7,E8,B1,B2,B3,B4,B5,B6,B7,B8,Cf,
E
