&title=Before I Rise
&artist=麻枝准 × やなぎなぎ 「HEAVEN BURNS RED」
&first=-0.06
&des=Doraemon Television
&lv_5=13
&inote_5=(140)
{1},(70)
{2},
{16}3/6,,,,2,4,3,,
{16}5/6,,4,,3/5,,2-4[16:1]/4,,
{16},,2,5,6,,4,5,
{16}3,,8,7,6,,4/5-7[16:1],,
{16},,5,2,3,,8,1,
{16}7,,8-2[16:1]/6,,,,8,6,
{16}5,,{32}4,3,2,1,8,7,6,5,4h[2:1]/3b,,,,
{16},,3>5[32:7],,,,3,,
{16}4,,7-3[16:1],,,,7V51[8:1],,,,7/4<8[8:1],,4,,4/3,3,
{16},2,1-5[16:1],,8,,7h[2:1]/1,,,,8>6[32:7],1,,,8,,
{16}1,,2V48[32:5],,5,,2/6h[8:1],,,,7,6,5,,4h[4:1]/2qq5[32:7],,
{16},,2,,,,{32}6b<8[12:1],,,5,,,5,,4<6[12:1],,,3,,,3,,2>4[12:1],,,1,
{32},,1,,8v3[32:3],,,7,,,7,,1<6[8:1],,,2,,,2,,3-8[8:1],,,4,,,4,,5>2[8:1],,,6,
{32},,6,,7w3[32:3],,,,8,,,,7,,,,,,5/1,,2,,3,,,,6h[16:3]/4,,,,,,
{16}8-6[16:1],5,6-2[32:5]/8-4[32:5],,8,,8,,,,7/1,6/2,5/3,,4pp6[32:3]*qq2[32:3],,
{16},,4<4[2:1],,,,4b,,,,4<4[2:1],,7,,6,6h[8:1],
{16},,4<4[2:1],,7h[4:1],,,,,,4<4[2:1],,7,,6,6h[8:1],
{16},,4<4[2:1],,7h[4:1],,,,,,4V28[32:6],,7,,6,6h[8:1],
{16},,6-1[16:1],,7v4[16:1],5,6>1[12:1],,7,,6,,{32}8>8[2:1],7,6,5,4/3h[4:1],,,,
{16},,,,8>8[2:1],,3,,2,2h[8:1],,,8>8[2:1],,3h[4:1],,
{16},,,,8>8[2:1],,3,,2,2h[8:1],,,8>8[2:1],,3h[4:1],,
{16},,,,8-4[8:1],,3,,1pp6[32:5],2,3,,1/5,,7h[8:1],,
{32}3,,2,,1>5[16:1],8,1,8,1<5[16:1]*V75[16:1],,,,1<1[8:1],,,,1b,,,,5>5[8:1]*>5[8:1],,,,7,,,,1<1[8:1],,,,
{32}3,,4,,5>5[8:1]*>5[8:1],,,,7,,8,,1<1[8:1],,,,3,,,,5>5[8:1]*>5[8:1],,,,7,,,,1<1[8:1],,,,
{32}3,,4,,5>5[8:1]*>5[8:1],,,,7,,8,,1<1[8:1],,,,3,,,,5>5[8:1]*>5[8:1],,,,7,,,,1<1[8:1],,,,
{32}3,,4,,5>5[8:1]*>5[8:1],,,,7,,8,,1V35[16:1],,,,3-7[16:1]*-7[16:1],,,,1-5[16:1],,,,3,,,,1,,,,
{48}8,7,6,5,4,,1,8,7,6,5,,{32}2bw6[16:1],,,,8<8[8:1],,,,2,,,,4>4[8:1]*>4[8:1],,,,6,,7,,8<8[8:1],,,,
{32}2,,3,,4>4[8:1]*>4[8:1],,,,6,,,,8<8[8:1],,,,2,,,,4>4[8:1]*>4[8:1],,,,6,,7,,8<8[8:1],,,,
{32}2,,3,,4>4[8:1]*>4[8:1],,,,6,,,,8<8[8:1],,,,2,,,,4>4[8:1]*>4[8:1],,,,6,,7,,8<8[8:1],,,,
{32}2,,3,,4V68[16:1]*V68[16:1],,,,6-2[16:1],,,,4-8[16:1]*-8[16:1],,,,6,,,,4,,,,{48}6,7,8,1,2,,5,6,7,8,1,,
{32}4b,,,,1/7-3[16:1],,3,4,,6,5,,7/8,,1,,2<5[8:1]/4,,3,4,3,,5,,2/4-8[16:1],,,,3,,,,
{32}4/6,,,,2-6[16:1]/8,,6,5,,3,4,,1/2,,8,,1/7,,2,8,2>5[16:1],,1,,8-4[16:1],,7,,2,,,,
{32}8/1,,,,4/6-2[16:1],,3,4,,7,8,,5/6,,4,,1/3,,8,1,7<4[16:1],,8,,1-5[16:1],,2,,7,,,,
{32}1/8,,7,,2,1,2,,8-4[16:1]/3,,2,1,,5,4,,8b/6-2[16:1],,,,3b,,,,6b/4V68[16:1],,,,1b,,,,
{16}4<4[8:1]*<4[8:1],2,1,1,8>8[8:1],6,5,5,4<4[8:1]*<4[8:1],2,1,1,8V64[16:1],6,7,7,
{16}8<8[8:1]*<8[8:1],2,3,3,4>4[8:1],6,7,7,8<8[8:1]*<8[8:1],2,3,3,4V68[16:1],,2,,4<4[8:1]*<4[8:1],2,1,1,8>8[8:1],6,5,5,4<4[8:1]*<4[8:1],2,1,1,8,5,6,7,
{32}8/2,,1,7,1,,8,,1/3-7[16:1],,2,4,,5,4,,3b/8<4[16:1],,,,2b,,,,8b/1w5[16:1],,,,7b,,,,
{1}1b<1[2:1]*>1[2:1],
{16}5-8[16:11],,,,4,,4,,,,,,3,,2,,
{16}1-4[16:11],,,,,,,,7,,,,6,,,,
{16}6,5,4,3,6,5,4,3,5,4,3,2,1bV73[2:1]*-5[2:1],,,,
{1},
E
