&title=砕月
&artist=黄昏フロンティア / 上海アリス幻樂団
&first=0
&des_5=albertoBradish
&lv_5=13
&des=albertoBradish
&clock_count=4
&inote_5=(128){4},{8},,,,,,,,,,4/5,
{16}6,5,,3,{8}4,
{16}6b/5>2[8:1],,,1,{8}5,8,{16}7>2[8:1],,,3,{8}7,4,
{4}5>2[8:1],5/6<1[8:1],{8}6/2h[4:1],,,2,
{16}3/4<7[8:1],,,8,{8}4,1,{16}2<7[8:1],,,6,{8}2,5,
{4}4-8[12:1],4/2-6[12:1],2/8,{8}7,6,
{16}5/2,,,3,{8}4,5,{16}4/7,,,6,{8}5,4,
{4}2/5h[4:1],{24}1,2,3,4,,,{4}8/4-8[12:1],{8}7,6,
{16}5<8[8:1],,,1,{8}2,3,4<7[8:1]*>1[8:1],3,{4}4-8[4:3],
{2}4h[4:1],{8}4,3,2b,1,
{16}8b/7<4[8:1],,,8,{8}7,1,{16}2>5[8:1],,,1,{8}2,8,
{4}7-3[12:1],7/2-6[12:1],2,{8}7,8,
{16}1-5[12:1],,,3,{8}1,2,{16}8-4[12:1],,,6,{8}8,7,
{4}8<5[8:1]*>3[8:1],8-4[12:1],8/4,{8}1,2,
{16}3>8[8:1],,,4,{8}3,5,{16}6<1[8:1],,,5,{8}6,4,
{4}2-6[12:1],2/4-8[12:1],4/3,{8}5,4,
{16}3>8[8:1],,,4,{8}3,5,{4}6<1[8:1]*>3[8:1],6-2[8:5],
{2}6h[4:1],{8}5,6,7b/4,8/3,
1b/2>5[8:1],5>2[8:1],{4}2-6[8:1],8h[16:3],{8}4,2,
7-3[8:1],3<6[8:1],{4}7>2[8:1],7,{8}4,6,
7-3[8:1],3-7[8:1],7,4,{4}1h[4:1],{16}7,6,{8}5,
2>5[8:1],1,2-6[4:1],8,2h[4:1],,,1,
{16}5/8>3[8:1],,,4,{8}8,5,{4}6-2[12:1],{8}6/2,3,
4>1[8:1],3,{24}8,7,6,5,,,{4}4/8>3[8:1],{8}5,7,
{16}1-5[12:1],,,3,{8}1,2,1>4[8:1],2,{24}5-1[2:1],6,7,8,,,{2}2b,
{16}3,3,4,4,{32}1,2,{16}3,{32}5,6,{16}7,
2b,2,4,4,1,1,7,7,5>2[8:1],6,5,6,{4}5/7-3[12:1],
7/8-4[12:1],8/1-5[12:1],{8}1/2,3,4/6,5,
{16}6,6,5,5,8,8,2,2,4<7[8:1],3,4,3,{4}4/2-6[12:1],
2/1-5[12:1],1/8-4[12:1],{8}8/7,6,5/3,4,
5/3>8[8:1],{16}4,3,5,6,{8}7,4/6<1[8:1],{16}5,6,4,3,{8}2,
{16}7<4[8:1],,,3,2-6[12:1],1,{8}8,{4}2/6,{16}7,7,8,8,
7/1-5[12:1],,,4,{8}1,6,7<4[8:1]/3>8[8:1],8/4,{4}7/3-7[8:3],
{8}3h[2:1],,,,,4,5b/1,2/6,
{16}8b,3,7,3,5,3,7,3,8,3,8,3,6,3,5,3,
4,3,5,3,6,3,7,3,{4}4/5-1[12:1],{8}8/5,7,
{16}6,2,6,2,5,2,6,2,7,2,7,2,8,2,1,2,
7,2,5,2,8-4[12:1],3,7,3,{4}8/4,{16}1,1,6,6,
2,4,2,4,1,4,3,4,2,5,2,5,3,6,1,6,
{8}8,{16}6,5,7-3[12:1],1,{8}4,{4}7/5,{16}4,4,5,5,
4,6,4,6,3,6,2,6,1,5,3,5,8-4[4:1],5,8,6,
{2}8h[4:1],{8}1,2,3/6b,7,
5b/8<5[8:1],7,8/1-5[12:1],2,{16}1/3>8[8:1],,,4,5,6,{8}7,
8/1>4[8:1],2,1/8-4[12:1],7,{4}8/6<1[8:1],{8}5,3,
2-6[12:1],4,2/8-4[12:1],7,{4}5<8[8:1]*>2[8:1],5,
{8}7-3[12:1],5,7/1-5[12:1],2,{4}4>1[8:1],{8}4/5,6,
{16}7<4[8:1],,,8,7,1,{8}2,{16}3>8[8:1],,,4,{8}3,5,
6-2[12:1],3,{24}1<6[8:1],2,3,4,,,{4}1-5[12:1],{8}1,7,
{16}8-4[12:1],,,3,{8}8,2,1>4[8:1],2,{24}5,6,7,8,{96},,,,,,,,{32}1b/5b,
2,3,4,5,6,7,8,1,2,3,4,5,6,7,8,1,2,3,4,5,6,7,8,1,2,3,4,5,6,7,8,
{1}1b/5b,
E
