&title=Inpaqq
&artist=owl*tree
&first=0.015
&des_5=HeYyin
&lv_5=14
&des=HeYyin
&inote_5=(118)
{4},,,,{96}E3/E7,B2,B6,B1,B5,E1,E5,8x^7-1-6-2-5-3[96:120]/4hx[96:169],,,,,,,,,,,,,,,,,,,,,,,,,,,,,,,,,,,,,,,,,,,,,,,,,,,,,,,,,,,,,,,,,,,,,,,,,,,,,,,,,,,,,,,,,
{4},,,{24},,2,4,,3,5hx[4:2],,,E7,,,E1,,,E3,,,3,,5,4,,3x/6x,,,,45,,6,3v8[8:1],,,4,,,3/7^4[8:1],,,6,,,1w5[12:1],,1,,,1x,,,,,,,
{24}6hx[8:1],,,C,,,2h[8:1],,,4h[8:1],,,8pp5[6:1],,8,,,2h[24:4],,,,,,,B2,,,5,4,6,5h[8:1],,,7h[8:1],,,2-6-3-5[24:5],,2,,,6,,,7,7x,,,6h[12:1],,,8,,,3h[12:1],,,1,,,4,5,4,6,3,6,2,7,2,8,1,8h[24:3],,,1,,57,,46,,35,,42,,36,,B3,,C,,B6,,,,,,
{24}6h[8:1],,,3qq4[24:5],,,5h[8:1],,,,,,6,,6,,,57,,,4,5,,5,4,,,35,,,3,4,3,52,,,2-5[12:1]/1-6[12:1],,38,,,21,,,,,,,
{24}3h[8:1],,,6pp5[24:5],,,4h[8:1],,,,,,3,,3,,,42,,,5,4,,4,5,,5,6,,6,7,,7,8,,8,1,,1,2,,2,3,,3,4x,,,
{24}7h[8:1],,,2pp1[24:5],,,8h[8:1],,,,,,7,,7,,,81,,,2,1,,1,2,,,35,,,6,5,6,47,,,7-4[12:1]/8-3[12:1],,16,,,78,,,,,,,
{24}8h[8:1]/1,,,6,,,5,,5,7,,7,65,,54,,,36,,,2,1,,,64,,,5/3-1[10:1],,,4,,,3x/5-7[10:1],,,4,,,5x/3-1[10:1],,,4,,,5/3x,,,
{8}7-5[8:1],4,7-1[8:1],1,7-3[8:1],2,7,1,
{24}28,,,3,,4,,,,17,,,6,,5,,,6,2,4,3,5h[8:1],,,
1-4[8:1],,,3,,,1-6[8:1],,,7,,,1-5[8:1],,,2,,,1/7xpp3pp6[8:6],,7x,,,4hx[24:19],,,,,,,,,,,,,,,,,,,,,,
{24}2,3,4,5/6-1[8:1],,,7,,,6/5-2[8:1],,,4,,,6-1[8:1]/5,,,7,,,56,,,4,,,12,,,34,,34,,,,78,,,56,,56,,,4,7,5,6,3h[8:1],,,C,,,4,,,56,,47,,,18,,,7,5,,6,4,,35,,,1h[24:4],,,,{24}8,7,6,5hx[8:1],,,7,6,5,4hx[8:1],,,6,5,4,3hx[8:1],,,5,4,3,2hx[4:1],,,,,,
4,,3,5,,4,6,,5,7,,1,8,,2,4,,3,5h[12:1],,2,2,,,3h[12:1],,7,7,,,6h[12:1],,1,1,,,1,2,3,4/5,6,7,3x,4,3,6x,5,6,2x,4,3,7x,5,6,1hx[8:1],,,3hx[8:1],,,5hx[8:1],,,7x,,,
{24}1b-5[8:1]/6b,,,7-3[8:1]/3,,,1,,,7,,,2pp5[6:1],,2,,,7h[6:1],,,,,,,,,,7,6,5,1/4-1[10:1],,,6/2,,,4/8v5[12:1]*q4[12:1],,8,,,8x,,,,6,,6,5h[8:1]/7,,,3h[8:1],,,1h[8:1],,,8,,,27,,45,36,,1x/8x,,,,54,,3,6v1[8:1],,,5,,,6/2^5[8:1],,,3,,,8-4[12:1],,8,,,8x,,,2,1,,,
{24}6b,,6,5,,5,7-3[10:1],,,3v5[10:1],,,2,,2,,,1h[6:1],,,,4x,5x,6x,7x,8x,1x,3x,4x,3x,4x,3x,4x,3x,4x,3x,4x,,,2,,2,7,,7,4,,,5/6h[12:1],,,8,,,3h[12:1]/4,,,1,,,3,4,3,6,5,6,2,4,2,7,5,7,,,48,,37,,26,,15,,4h[24:14]/8,,1x,,8x,,7x,,6hx[8:1],,,,,,{24}
{192}7b-3[10:1],,,8x,,,1x,,,2x,,,3x,,,,{24},5,,4,7,,,2,,,3-8[10:1]/4,,,8/7-4[10:1],,,3,,,7,,,
{8}1h[12:1],3h[12:1]/4h[12:1],5h[12:1]/6h[12:1],8h[12:1],3h[12:1]/4h[12:1],5h[12:1]/6h[12:1],{24}4,6,3,5h[12:1],,,{64}2bx-6^5-3^4-8b[24:8]/6bx,3x/7x,4x/8x,1x/5x,,,,,,,,,,,,,
{24}8h[12:1],,,7h[12:1],,,6h[12:1],,,5,,5,1,,1,3xp7v4-1b[24:7]/7x,,,8,,,8h[12:1],,,6,,,6h[12:1],,,8h[12:1],,,5h[12:1]/6h[12:1],,,3h[12:1]/4h[12:1],,,2x/7x,,,
{24}8xv5-7[24:4],7,6,1x,2,3,8x,,,E4,B4,B5,B1,B8,E8,E4,B3,B2,B7,B6,E6,5x/1x,,,
{96}3x,4x,,,,,6hx[16:3],,,,,,,,,,,,,,,,,,4x,5x^4v1^2b[32:7],,,,,{16}7hx[16:1],{96}4x,5x,,,,,{16}7hx[16:3],,,,,E8,C,E6,,
{24}4x-8[12:1],3,2,5x,6,7,4x,,,6,5,6,4,5,4,6,5,7,8xqq2[6:1]/4x,,,2x/6x,,,4qq6[6:1],,,,,,6qq8[6:1],,,,,,8qq2[6:1],,,,,,3,,,,,,,,,5<3[4:1]/6h[4:1],,,,,,,,,,,7,,8,,12,,38,,4/7h[24:5],,,,,{16}5,7,4,6,3,5,2,4,1,8,2,4,3,5,4,4,6,6,5,5,7,7,4,4,,47,,6,5,7,
{24}2-6[10:1],,5,4,,5^8[10:1],2,,7,,,5^2[10:1],,,4,4,,5,6,,5,5,,,,,{48}4x,3x,2x,1hx[48:11],,,,,,,{24},,4h[48:6],,,{24}2,,2,5,,5,4,,4,7,,7,3,,5,4,,36,,,2,4,,1-5[10:1],,,5^6p2[6:1]/3,,,18,,,,,,,
{24}7-4[10:1],,8,1,,1,7,,,1,2,3,4-8[12:1]/5,,36,,,47,,,7,6,5,4,2,3,2,3,2,3,2,3,2,3,2,3,1hb[8:1],,,8hb[8:1],,,6hb[8:1],,,8hb[8:1],,,
{24}1b>4[12:1],,6,5,,8,1,,,7^4[16:1],,3,4,,{48}E4,E3,E2,E1,,,,,{24}5,,5,4,,,
{24}3^6[12:1]/7,,5,4,,5,3,,,8-5[12:1],,4,5,,1,8,,3,4,,4,5,,,
{24}8b<5[12:1],,3,4,,1,8,,,2^5[16:1],,6,5,,{48}E6,E7,E8,E1,,,,,{24}4,,4,5,,,
{8}2b/B6/B5f,B3/B4f/7b,1b/B6/B5f,B3/B4f/8b,
{24}18,,1-5b[12:1]/8,27,,27,,,1b,7hb[8:1],,,
{24}4b^1[12:1],,8,1,,5,4,,6,6^1[16:1],,2,1,,{48}2b,3,4,5,,,,,{24}4,,5,3x/6x,,,
{24}2^7[12:1]/6,,8,1,,8,2,,5,5-8[12:1],,1,8,,4,5,,2,1,,1/8,2x/7x,,,
{24}5b<8[12:1],,2,1,,4,5,,3,3^8[16:1],,7,8,,{48}7b,6,5,4,,,,,{24}2,,4,3x/5x,,,
{24}4,5,4,5,4,5,4,5,4,5,4,5,3,5,2,5,1,5,{48}1bx,8x,7x,6x,5x,4x,3x,2x,1bxs5[24:5]/Cf,,,,,,,,,,,,,,,,,,,,,,,,,,,,4xz8[10:1]/5xz1[10:1],,,,,,,,,,,,,,,,,,,,,,,,
{24}5/6h[8:3],,,E7/B7,,,,,,5,,,6,,4,5,,3h[6:1],,,,4h[8:3],,,Ch[4:1],,,,,,,,,,,,1b/8b,,2b/7b,,,4b/5b,,,4b/5b,3b/6b,,,
{24}2,3,4,7,6,5,8,7,6,5,4,3,2x>8[24:3]/8x,,1x/7x,1x/7x,,2x/8x,,,,,,,{8}1v4[10:1],5v8[10:1],B2/B3,B6/B7,
{24}1-7[12:1]*V35b[6:1],,B6/C/B3,,,1x,,,,,,,
{24}6h[8:1],,,C,,,1h[8:1],,,7h[8:1],,,5<4[24:6],,5,,,5h[24:10]/6,,,,,,,,,,4,5,4,5,4,5,4,5,4^7[16:1],,,,12,,4,3,,48,48,,,
{8}1x-6[10:1]/8x,4-7[10:1]/5,1^4[10:1],4,1x,5-1[10:1],8^3[10:1],5,8x,4-8[10:1],2^7[10:1],4,2x,5v2[10:1],7,56,
{24}7h[8:1],,,5,,,2,4,3,7,5,6,2h[8:1],,,4,,,8,5,6,1,4,3,7,5,6,5,,,2,4,3,4,,,
{48}2x,3,4,6x,7,8,{48}2x,3,4,6x,7,8,{64}1hbx[96:11]/5hbx[96:11],,,,,,,,{64}8b/4b,3b/7b,2b/6b,,,,,,
{24},,18,,25,,36,,47,,26,,1-5[10:1]/8-4[10:1],,34,,56,,18,,{1},,E
