&title=青く駆けろ!
&artist=まらしぃ
&first=-0.21
&des=幻橙
&lv_5=13
&des_5=幻橙
&inote_5=
(190){4},{8},,,,,,2/6,
5,3,4,2,{16}E5,E6,{8}E7,2,
3,4,5,6h[8:3],,E1,E2,E3,
7/4,3,5,4,6,{16}E5,E4,{8}E3,7,
6,5,4,3h[8:3],,E1,E8,E7,
3/5,2,8,1,7,{16}E3,E4,{8}E5,6,
7,8,1,2h[8:3],,E4,E5,E6,
7/1,2,8,1,7,{16}E3,E4,{8}E5,6,
{4}5x/7x,4x/2x,3x/6x,1x>8[2:3]/8x<1[2:3],
{1}1b/8b,
{4},,,2>7[4:3]/7<2[4:3],
{1}7b/2b,
{8}1/2,8,7,5/6,,7,8/1,2,
3/5,4,4,5/7,6,6,5/3,2,
2,4/6,7,7,4/2,3/5,4/6,5/7h[8:5],
,8,1,2,3,4,5,6h[8:3],
{16},,2,1,8,7,6,5,4,3,2,1,8,7,6,5,
{4}4h[4:3],5,5,5,
5/4,5/4,{8}5,3x,5,2x,
{4}6/1,6/1,{8}7,8,1/6,2/5,
,8/3,{4}7/4,{8}7/2,6/3,{4}5/4,
3/6h[4:1],{8}4,5,{4}4,3/5<8[2:1],
3,3,3,8/3,
4/7,{8}4,6,4,5,{4}4/5,
{8}3,4,{4}5,6/4,5/3,
6/3h[4:1],{8}5,4,{4}5,6/4>1[2:1],
7,7,7,1/6,
5/2,{8}5,3,5,4,{4}5/4,
{8}6,5,4,3,4/2,5,6/3,7,
{4}2/8x,4/5,1/7,6/3,
3/1>4[4:1],4<7[4:1],B3,B1,
1x/7-3[8:1],{8}1,1>4[8:1],,8,{4}8,
{8}6,5,{4}4,5/3,4/7,
6/5,7/2,4/3,6/1,
5/7<4[4:1],4>1[4:1],B1,B3,
{2}2h[4:1]/8h[4:3],{4}2,2,
2/7,{8}8/2,7,6/2,1,{4}7>6[2:3],
{8}7h[4:1],,,6h[8:11],,,,,,,,,,,{4}B3,
{8}B2,B5,C,B7,E4,{16}E1,B8,{8}B7,B5,
E6,C,B7,E2,,,{4}2<3[2:3],
{8}2h[4:1],,,3h[8:11],,,,,,,,,,,{4}B6,
{8}B7,B4,C,B2,E6,{16}E1,B1,{8}B2,B7,
{4}5x/6x,4x/2x,2x/8x,7x/5x,
6,{8}4,5/3,6,3,{4}5/1,
3,{8}5,4/6,3,6,{4}4/8,
5,{8}3,4/2,5,2,{4}4/8,
4,{8}6,5/7,4,7,{4}5/1,
{8}3x/5h[4:1],4,4,6x/5h[4:1],7,8,7x/4h[4:1],6,
5,3x/4h[4:1],2,1,{4}8x-3[8:1]/7x-4[8:1],8x/7x,
{8}2/5,{16}3,4,{8}3,7/4,{16}6,5,{8}6,{4}5/4,
2h[2:1]/7h[2:1],,,{256}8-4[8:1],1-5[8:1],{16},,,{64},,,{128},1b/8b,
{256},,,,,,,,,,,,B2,B7,{16}Cf,,,,,{8}3/7h[4:1],,4,3,2/5h[8:3],
,2,3,4,5/3,6,7/8,7/8>3[8:1],
,,5,6,{4}7/4h[4:1],{8}8,1x-7[8:1]/2x-7[8:1],
,1x-4[8:1]/2x>8[8:3],,1x/2x,,,,4x,
4x<7[8:1],,,4x,4x>1[8:1],,,5x,
5x<8[8:1],,,5x,{2}5x>7[4:1],
{8}6h[2:1],,,5,4,3,,2x-5[8:1]/1x-4[8:1],
,2x/1x,,7x-3[8:1]/8x-4[8:1],,7x/8x,,6,
5x,4/7q8[8:3],,4,3x,2,,3,
4x,5/2p8[8:3],,5,6x,7,,6,
5x,4/7q7[8:3],,4,3x,2,,1,
{4}2x/8x,7x/5x,6x/3x,4x/2x,
5x/1xh[4:1],{8}4,1xh[8:5],{4}4,4,
4,{8}2/4,5,3/6,4,{16}7,5,7,5,
{4}8h[8:7],{8}6,6,6,6,5,4,
{4}5x/3x,7x/4x,5x/2x,1x/8x,
1x/2x>5[8:1],{8}8,7,{4}6/1>4[8:1],{8}7,6,
{4}5/8>5[4:1],{8}6,7,8,1,2,3,
{4}4/7<4[8:1],{8}1,2,{4}3/8<5[8:1],{8}2,3,
{4}4/1<4[4:1],{8}3,2,1,8,7,6,
{4}5<8[8:1],{8}3,4,{4}5>2[8:1],{8}7,6,
{4}5V71[8:1],{8}3,4,5,6,7,8,
{4}1>4[8:1],{8}7,8,{4}1<6[8:1],{8}3,2,
{4}1V35[8:1],{8}7,8,1,2,3,4,
{4}5-1[8:1],{8}5/2,3,{4}4/8-6[8:1],{8}8/3,2,
{4}1/5-7[8:1],{8}5/8,1,2,3,4,5,
{4}6/4-8[8:1],{8}4/7,6,{4}5/1-3[8:1],{8}1/6,7,
{4}8/4-2[8:1],{8}4/1,8,7,6,5,4,
{4}3/7,{8}1-5[8:1]/2-5[8:1],3,,,8-4[8:1]/7-4[8:1],6,
,,6/2,3,4,5,6,7,
8h[8:7],,,5,4,3,2,1h[8:9],
{4}7x,6x,5x,4x,
{1}3x<1[2:3],
{8},,,,,,,,2,
4,{16}3,,,5,,,{8}4x,,,5x,
,,6x,{16},,,,,,,,,B6,
C,B2,
E
