&title=トラブル黒猫漫遊記
&artist=オーライフジャパン
&first=0
&des_5=喵
&lv_5=13+
&des=喵
&clock_count=4
&inote_5=(216)
{1},,
{1},,,{8}E2,E3,E4,E5,E6,E7,E8/E1,,
{8}3/4h[4:1],,2h[8:1],,3/4h[4:1],,2,,
{8}3/5h[4:1],,2h[8:1],,4/5h[4:1],,3,,
{8}6/5h[4:1],,7h[8:1],,6/5h[4:1],,7,,
{4}6h[4:1]/4,5h[4:1],4h[4:1],3,
{8}2/5h[4:1],,1h[8:1],,2/5h[4:1],,3,,
{8}2/6h[4:1],,1h[8:1],,2/5h[4:1],,3,,
{8}7/4h[4:1],,8h[8:1],,7/4h[4:1],,6h[8:1],,
{8}7/1h[8:1],,7/2h[8:1],,7/3h[8:1],,7/4h[8:1],,
{8}5/7h[4:1],,6h[8:1],,8/7h[4:1],,1,,
{8}4/2h[4:1],,3h[8:1],,1/2h[4:1],,8,,
{8}5/7h[4:1],,6h[8:1],,8/7h[4:1],,1,,
{4}6h[4:1]/2,5h[4:1],4h[4:1],3,
{8}8/2h[4:1],,1h[8:1],,3/2h[4:1],,4,,
{8}5/7h[4:1],,6h[8:1],,8/7h[4:1],,1,,
{8}2/4h[4:1],,3h[8:1],,5/4h[4:1],,6,,
{8}7/1h[4:1],,8,,1p5b[8:1]/2,,,,
{8}3,2-4[8:1],,6-1[8:1],,5,5,,
{8}4,3-1[8:1],,7-4[8:1],,8,8,,
{8}1,2-5[8:1],,8-4[8:1],,3,3,,
{8}1b-3[8:1]/5b,,1/7,,1-7[8:1],,1/3,,
{8}2,2,,8/3,,7<5[8:1],2,2,
{8},1>3[8:1],6,6,,7<5[8:1],2,2,
{8}1h[4:1],,8,7,4/6h[4:1],,1,2,
{8}5b/3b,6,7,8,1/4,3,2,1,
{8}8-3[8:1]/6,6,,5-7[8:1],,2,2,,
{8}8-5[8:1]/3,3,,4-2[8:1],,7,7,,
{8}1-4[8:1]/6,6,,5-7[8:1],,3,3,,
{8}8b-6[8:1]/4b,,8/2,,8-2[8:1],,8/6,,
{8}7,7,,5<7[8:1]/2,,3,4,5>3[8:1],
{8},7,6,5<7[8:1],,3,4,5,
{4}5b>1[4:1],1V75[4:1],5V31[4:1],1,
{4}E7,E8,1b-5b[8:1]/2,,
{8}3,4,6,7-4[8:1],,2,2,,
{8}3,5,2qq4[8:3]/6h[2:1],,,,,,
{8}6,5,3,2-5[8:1],,7,7,,
{4}6h[4:1],5h[4:1],4v5[8:1],,
{8}3,4,6,7-5-8-4[8:3],,2,2,,
{8}3-8[8:1],,5,5-1[8:1],,4,4<3[4:3],,
{1}6h[4:3],
{8}E6,B5,B4,E4,,E7/B7,E3/B2,,
{8}6,5,3,2v5[8:1],,8,8,,
{8}6,4,7-3-1p5[8:3]/3h[2:1],,,,,,
{8}3,4,6,7v4[8:1],,1,1,,
{4}3h[4:1],4h[4:1],5v4[8:1],,
{8}6,5,3,2-5-1-4[8:3],,8,8,,
{8}6-2[8:1],,5,5-1[8:1],,4,4>5[4:3],,
{1}3h[4:3],
{8}E2,,E7/B6,E8,,E4,E3/B2,,
{8}5h[8:3],,1-3-8[4:1],1,,6,6h[4:1],,
{8}1,7,2,8,3-5-2[4:1],,,,
{8}8,,7,6,2/5,,3/4,,
{4}1b/2b,3b/8b,4b/7b,6b/5b,
{8}4qq3[4:1],4,,5,6pp7[4:1],6,,4,
{4}5,4/6,3/7,2/8,
{8}1q4[2:1],,,,,,7,8,
{4}1-6[8:1],,1-4[8:1],,
{1}8b-3q1-4[4:5]*-5p7-4[4:5],,
{8}6h[2:1],,,,C,,,,
{8}4,4h[8:3],,,C,,,,
{4}5,5h[4:1],B3/E3,{8},4,
{8}4h[8:1],E7/B7,,5h[8:1],B2/E3,,4,,
{4}5,5h[4:1],B3/E3,{8},4,
{8}E6,E7,E8,E1,E2,E3,E4/E5,,
{8}6,7p3[8:1],,7/1-5[8:1],,1,6h[4:1],,
{8}4,3-8[8:1],,3/5-1[8:1],,5,2h[4:1],,
{8}8,7-4[8:1],,7/3v8[8:1],,3,7h[4:1],,
{8}1b-4[8:1],,1/7,,1-6[8:1],,1/3,,
{8}2,2,,8/3,,7<4[8:1],2,2,
{8},1>4[8:1],6,6,,7<4[8:1],2,2,
{8}1h[4:1],,7,6,5/3h[4:1],,5,6,
{8}7/4,3,2,1,8/5,6,7,8,
{8}3b-8[8:1]/1,3,,4-7[8:1],,4,1,,
{8}2-5[8:1]/6,6,,1-6[8:1],,1,4,,
{8}7-4[8:1]/3,3,,1-5[8:1],,1,7,,
{8}8b-5[8:1]/4b,,8/2,,8-3[8:1],,8/6,,
{8}7,7,,4>1[8:1]/8,,6,6,4<7[8:1],
{8},2,2,4>1[8:1],,6,6,4,
{4}4b<8[4:1],8V24[4:1],4-6-1[4:1],8,
{4}B3/B4,,,,
{2}4>5[4:7],,C,B2/B3,
{2}4>5[4:7],,E5/B4,B1/B2,
{2}8<1[4:7],,E5/B5,B8/B7,
{2}8<1[4:7],,7h[2:1],,
{4}6h[4:1],B6,5h[4:1],B5,4h[4:1],B4,3h[4:1],B3,
{4}2h[4:1],B2,1h[4:1],B1,8h[4:1],B8,7h[4:1],B7,
{4}6h[4:1],B6,4h[4:1],B4,2h[4:1],B2,8h[4:1],B8,
{4}6>7[1:1],,,,{4},,4h[8:1]/5h[8:1],4h[8:1]/5h[8:1],
{8}3b-5[8:1],,3/5,7-4[8:1],,7/3,1-3[8:1],,
{8}1/5,6,7,8/4-1[8:1],,6,6h[4:1],,
{8}8,6,1,6,2,6,3,6,
{8}4-6[8:1],,4/6,7-3[8:1],,7/3,2h[4:1],,
{8}1,2,8,2,7,2,6,2,
{8}5h[2:1],,1-7-3[4:1],1,,,6,,
{8}7-4[8:1],,8/7,1,2-5[8:1],,1/2,8,
{8}7pp4[8:3],,2,,3h[4:1],,,,
{8}2-5[8:1],,2b/7,8,1-6[8:1],,1b/4,3,
{8}2>5[8:1],2,1b,8,7-4[8:1],,,,
{8}1-3[8:1],1,8,7,6-8[8:1],6,5,4,
{8}3-1[8:1],3,4,5,6-8[8:1],,,,
{8}2,3b/5b,,7b/8b,,4b/6b,,1b/3b,
{8},4b/5b,,2b-4[8:1]/7b-5[8:1],1b/8b,,,,
{8}2-5[8:1],,6,7,8-5[8:1],,1>4[8:1],1,
{4}1<6[8:1],1-5[8:1],1,8,
{4}3h[8:11]/7h[8:11],,,,
{4},,4/6,8/1,
{4}2h[8:11]/5h[8:11],,,,
{4},,3/4,1/7,
{4}5h[2:1]/6<4[4:3],,,,
{4}1h[2:1],,,,
{8}E8/B8,B3,E6,E2,E7/B6,,E8,B3/E3,
{8}1/5,1/5,2/6,2/6,3h[16:1]/7h[16:1],,A2/B2/A6/B6/C,,
{8}1,3-8[8:1]/7,,3/7-4[8:1],,1,2,3,
{8}5,6-1[8:1]/2,,6/2-5[8:1],,8,7,6,
{8}4,3-8[8:1]/7,,3/7qq8[4:1],,1,2,3,
{8}4b>1[8:1],,4/6,,4<7[8:1],,4/2,,
{8}3,4-1[8:1],,4/5,,7q5[16:3],2,2,
{8},3p5[16:3],6,6,,7q5[8:1],4,3,
{8}2,,1>4[8:1],1,6,,8<5[8:1],8,
{8}1b,2,3,4-1[8:1],8,7,6,5,
{8}4b-7-2[16:3]/8,8,,3-6[8:1],,3,1,,
{8}8-5-2[16:3]/4,4,,1-6[8:1],,1,8,,
{8}7-2-6[16:3]/5,5,,4-8[8:1],,4,7,,
{8}1b>4[8:1]/5b,,1/7,,1-5[8:1],,1/3,,
{8}4,3-5[8:1]/6-4[8:1],,3/6,,2-4[8:1]/7-5[8:1],2/7,,
{8},1-3[8:1]/8-6[8:1],1/8,,,4,5,3/6,
{8}2/7,2-8[8:1]/7-4[8:1],,2/7,,3-5[8:1]/6-1[8:1],6/3,,
{8},8-4[8:1]/2-5[8:1],8/2,,,6,7/1,2,
{8}8b/3b,7b-4[8:1]/4b-8[8:1],,7b/4b,,1b-5[8:1]/6b-1[8:1],1b/6b,,
{8},3b-8[8:1]/7b-3[8:1],3b/7b,,,1/4,2/5,3/6,
{8}4b-1[8:1]/7b-4[8:1],,4b/7b,,8b-3[8:1]/3b,8b/3b,,5b,
{1}8b<8b[6:16],,{4},,,{12}E3,B3,B4,
E
