&title=01
&artist=女王蜂
&first=0.2
&des=不死
&des_5=不死
&lv_5=13
&inote_5=(180){4},{1},{4},{8}B5,
B6,B7,B8,
{2},{8}B4,B5,B6,B7,
{2},{8}B3,B4,B5,B6,
{2},{8}B3,B4,B5,B6,
{2},{8}5>2[2:1],6,7,8h[8:5],
{2},{8}4>1[2:1],5,6,7h[8:5],
{2},{8}3>8[2:1],4,5,6h[8:5],
{2},{8}3,4,5w1[4:1],6,
{2},{4}4/6h[4:1],5,
5/7h[4:1],4,{8}3h[8:1],4,{4}2>5[8:1],
{8},6,{4}7h[4:1],{8}3h[8:1],4,{4}2-5[8:1],
{8},6,{4}7h[4:1],1q5[8:1],5,
{8}7-1[8:1],7,{4},5/3h[4:1],4,
4/2h[4:1],5,{8}6h[8:1],5,{4}7<4[8:1],
{8},3,{4}2h[4:1],{8}6h[8:1],5,{4}7-4[8:1],
{8},3,{4}2h[4:1],8p4[8:1],4,
{8}1-5[8:1],1,8,8,,3/4h[4:1],3,1-5[8:1],
,6,{4}6h[4:1],{8}3-5[8:1],3,{4}7-5[8:1],
{8}3-1[8:1],3,{4}8,{8},5/3h[4:1],5,8-4[8:1],
,3,{4}3h[4:1],{8}6-4[8:1],6,{4}2-5[8:1],
{8}6<1[8:1],6,{4}1,4/3h[4:1],8-4[8:1],
{8},1,{4}1h[4:1],4-6[8:1],{8}2,2,
{4}4/7-5[8:1],{8}3,3,{4}1/4-6[8:1],{8}3,3,
{4}1/7-4[8:1],4,{8}3/5,3,6/4,6,
7/5qq1[8:3],5,8,8h[8:3],{2},{8}7,
6/4,3,3,{4}4/2<7[8:1],{8}5,6>3[8:1],
,2pp7[8:3],{4}1h[2:1],{2},{8}3,
4/6,7,7,{4}5/8<6[8:1],{8}4,3>1[8:1],
,6qq1[8:3],{4}5h[2:1],{2},{8}2,
3/5,6,6,{4}5/7>2[8:1],{8}4,3<6[8:1],
,7qq2[8:3],{4}8h[2:1],{2},{8}6,
5/3,2,2,{4}4/1>3[8:1],{8}5,6<8[8:1],
,3,{4}4,{8}8h[4:1]/2-4[8:1],2,{4},{8}7-5[8:1],
3,{4}4h[4:1],{8}6v1[8:1],6,{4}1-5[8:1],
5,3h[4:1],{8}5v8[8:1],5,{4}8-4[8:1],
4,1h[4:1],{8}8-4[8:1],8,{4}3<6[8:1],
{8}7,8h[4:1],,1x,{2}6h[4:1]/2>5[8:1],
{8}8-4[8:1],2,{4}3h[4:1],{8}7-4[8:1],7,{4}4q8[8:1],
8,2h[4:1],4q8[8:1],8-5[8:1],
5,{8}1,1,2/4,5,5,1,
4/2,4,5/3,3,{2}6x-3[4:3],
,7x-2[4:3],
,3x-6[4:3],
,2x-7[4:3],
,{4}4x-8[2:1],5,
5,5,5x-1[2:1],3,
3,3,4>1[8:1],4/6,
5<8[8:1],5/3,4w8b[8:1],4x,
{2}1x>5[8:1]*<5[8:1],{4}5x-1b[8:1],5xh[8:1],
{24}6bx/1xp5[8:1],7x/2x,{12}8x/3x,,{4}4,{24}6bx/1xp5[8:1],7x/2x,{12}8x/3x,,{4}5-2[8:1]*v8[8:1],
,{8},5h[4:1]/3b-8[8:1],,3x,{4}6x,
{24}2bx/5xp1[8:1],3x/6x,{12}4x/7x,,{4}8,{24}2bx/5xp1[8:1],3x/6x,{12}4x/7x,,{4}1-4[8:1]*v6[8:1],
,7/3-5[8:1],{8}5-1[8:1],6,8b,8b,
,2>5[8:1],2,6,{4}7-3[8:1],7/5p1[8:1]*<8[8:1],
5bx,{8}2,3x/4x,5<8[8:1],5,1,1h[4:1],
,8-4[8:1],8,2,{4}3<6[8:1],3/7h[4:1],
{32}8bx,1x,2x,3x,4x,5x,6x,7x,{4}8bx-3[8:1]/4bx-7[8:1],4b/8b,4bx/8bx,
{24}4bx/8x-3[8:1],3x/7x,{12}2x/6x,,{4}5x,{24}4bx/8x-3[8:1],3x/7x,{12}2x/6x,,{4}5xpp5[4:1]*qq4[4:1],
{8}5x,{4},{8}7h[4:1]/3b-8[8:1],,3,{4}5x,
{24}1bx/5x-2[8:1],2x/6x,{12}3x/7x,,{4}8x,{24}1bx/5x-2[8:1],2x/6x,{12}3x/7x,,{4}8xqq8[4:1]*pp1[4:1],
{2}8x,{8}4-8[8:1],3,1b,1b,
,7<4[8:1],7,3,{4}2-6[8:1],2/4w8b[8:1],
4bx,{8}6,3x/5x,2-5[8:1],2,8,8h[4:1],
,1-5[8:1],1,7,{4}6>3[8:1],6/2h[4:1],
{32}1bx,8x,7x,6x,5x,4x,3x,2x,1bx,8x,7x,6x,5x,4x,3x,2x,1bx-5b[8:1],8x,7x,6x,5x,4x,3x,2x,{4}1bx/Ch[8:1],
