&title=Invisible Frenzy
&artist=Kobaryo
&first=0.15
&lv_1=1
&des_1=
&inote_1=
(125){4}1/2,
E
&lv_2=1
&des_2=
&inote_2=
(125){4}1/2,
E
&lv_3=1
&des_3=
&inote_3=
(125){4}1/2,{1},,,,,,,,,,,,,,,,,,,,,,,,,,,,,,,{4},,{8},1,
E
&lv_4=1
&des_4=
&inote_4=
(245){8},8-5[2:1]/1-4[2:1],{4},,,{16},,{24}B4,
,B3,,B2,,B1,,B8,,B7,,B6,,B5,,B4,,B3,,B2,
,B1,,{8}B8f,,,,,,,,,,,,,,,,E6f/E2f/B1/B6/B2/B5,
,,,,,,,,,,,E7/B7/B6/Cfh[2:1],
,,,B2/B3/E3,
,,,,,,,,,,,,,,,B7/B8/B4/B3/E8f/E4f,
,,,,,,,,,,,Ch[2:1],
,,,6bx,
,6,,6,,6,
,5bx,,5,,5,,5,
,4bx,,4,,4,,4,
,3bx,,3,,3,,3,
,2bx/6bx,,6/2,,7bx/3bx,,7/3,
{24},,,4,,8,,4,,8,,4,,8,{48},,{16}4,3x,2x,1x,8x,7x,
6x,5x,{8}4x/Ch[4:3],,,,,,,,1b-5[8:1],
,1bx,,8b-4[8:1],,8bx,
,2,2,2,,5/4,,5/4,
,6,6,6,,8/1,,8/1,
,3,3,3,,7,7,7,
,2/6,2/6,2/6,,1/5,5/1,5b/1b,
,6-3[8:1],,6,,1-4[8:1],,1,
,5-8[8:1],,5,,2-7[8:1],,2,
,6bx,,5bx,,4bx,,3bx,
,2b,,1b,,8b,,7b>4b[8:3]*q4b[8:3],
,,,,,6,,6,
,6h[4:3],,,,2,,2h[2:1],
,,,7h[2:1],,,,3h,
,,,7/3,,8/4,,1/5,
,2-7b[8:1]/6-3b[8:1],,,,,,4-2-7b[8:3]/8-6-3b[8:3],
,,,,,,,E6f/E2f/B6/B1/B5/B2,
{24},,,3xh[12:1],4x,,,,,,,,6xh[12:1],5x,,,,,,,,1xh[12:1],8xh[12:1],,,,,2xh[12:1],
6xh[12:1],,,,,3xh[12:1],7xh[12:1],,,,,4bxh[12:1],8xh[12:1],,,,,1bx<6b[8:1],5bx>2b[12:1],,,,,,,,,,,{8}1,
5,1,5,1,
5,5x/1,,5x/1,,5x/1,,6<1[8:1],
,,,3<6[8:1],,,,8>6[8:3],
{16},,,,,,,,,,7x,8x,1x,2x,3x,4x,
5x,6x,{8}7x-4[8:1],,,1-5[8:1],,,8-4[8:1],
,,{4}2-5[8:1],{8},,,E6f/E2f/B6/B5/B1/B2,
{16},,3x,4x,5x,6x,7x,8x,1x,2x,3x,4x,5x,6x,7x,8x,
1x,2x,{8}3x/Ch[4:3],,,,,,E7f/E3f/B6/B7/B3/B2,
,8,7,6,5,4,,,B4/B3/E4,
,,6h[4:1],,3h[4:1],,5h[4:1],
,4-8[2:1],,,,,,,,,,,,,,,,5b/4b,
,8b/1b,,7b/2b,,,3b/4b,
4b/3b,,7b/8b,,5b/2b,,,,8b/1b,
,5b/4b,,6b/3b,,,2b/1b,
1b/2b,,6b/5b,{16},,1bx/2bx,8x/3x,7x/4x,6x/5x,7x/4x,8x/3x,
{1}1xw5[8:13]/2xw6[8:13],
{8},,,,,,,,,B2/B7/B3/B6/E3/E7/Ch[4:7],
{1},{4},,,{8},{16}4xh[32:1],
5xh[32:1],3xh[32:1],6xh[32:1],2xh[32:1],7xh[32:1],1xh[32:1],8xh[32:1],2xh[32:1],7xh[32:1],3xh[32:1],6xh[32:1],{32}4x,5x,3x,6x,
2x,7x,{48}1x,,8x,,1x,,8x,,1x,,8x,,1x,,8x,,1x,,8x,,1x,,8x,,1x,,8x,,1x,,8x,,1x,,8x,,1x,,8x,,1x,,8x,,1x,
,8x,,{16}1bxq3<5[16:21]*p7<5[16:21],{1},{4},,{8}A5f/D6/E6/E5/D5,
,,,2,
2,6/2,6/2,2,{4}2<7-2[1:1],
,,,,,,,,,,,,,,{2}1,
E
&lv_5=1
&des_5=D/-SAT-/ vs lGS
&inote_5=
(245){8},Ch[1:1],{4},,,{16},,{24}B1,
B2,B3,B4,B5,B6,B7,B8,B1,B2,B3,B4,B5,B6,B7,B8,E1,E2,E3,E4,E5,
E6,E7,E8,Cf/1xs5[4:7],{1},{4},,,{16},,,{48},{8}8xz4[8:9],
,,,,,,,,,,,1xw5[8:1],
,,,B5f/B6/B4/E6/E5,
,,6-1[8:1],6,,,2-5[8:1],
2,,8,{4}8-4[8:1],8,
{8},6h[16:1]/2h[16:1],,,3-8[8:1],3,,,7-4[8:1],
7,,1,{4}1-5b[8:1],1bx,
{8},2xh[16:1]/4xh[16:1],3,3,3,3,3,3,
3,3x/7,7,7,7,7,7,7,
7,7x/2,2,2,2,2,2,2,
2,2x/6,6,6,6,6,6,6,
6,2x-5[16:1],,8x-4[16:1],,1x-5[16:1],,7x,
{16},,2,7,2,7,2,7,2,7,1h[32:1],8h[32:1],1h[32:1],8h[32:1],1h[32:1],8h[32:1],
1h[32:1],8h[32:1],{8}Ch[1:1],,,,,,,,7-3[16:1],
,7,,2b-6b[16:1],,2b,
,7-4[8:1],7,1-5[8:1],1,8-4[8:1],8,3V17>3b[4:3],
,6,,6,,5,,5,
,2-5[8:1],2,8-4[8:1],8,1-5[8:1],1,6<2V86b[4:3],
,3,,3,,4,,4,
,1h[16:1]/5h[16:1],,6/2,6/2,6/2,,7/3,
7/3,7/3,,8/4,8/4,8v6[8:1]/4v2[8:1],,8x/4x,
,7x-4[8:1],,3x-7[8:1],,6x-3[8:1],,1x,
,2b-5b[8:1],,6b-2b[8:1],,3b-6b[8:1],,8bz4b[4:1],
,,,,,7-4[8:1],4-7[8:1],7-2[8:1],
2-7[8:1],2-4[8:1],,,,6<2[4:1],,2>6[4:1],
,,,8w4b[8:1],,,,7b-3[8:1]/1b-5[8:1],
,,,6b/2b,{16},,1,7,1,7,1,7,
1,7,{8}8x-4[8:1],,,5-1[8:1],,,3-7[8:1],
,,{4}6-2[8:1],{8},,,8bx/1bx,
{32},,,,2x/E3,B3,B4,E5,{4}5x>2[16:1],{32}6x/E7,B7,B8,E1,{8}1x<6[8:1],{32},,,,E2,E3/E1,E4/E8,E5/E7,
{8}E6,{32}6xh[16:1],5xh[16:1],,,,,,,3xh[16:1],4xh[16:1],,,,,,,8x/2h[8:1],7,6,5,,,,,1x/7h[8:1],2,3,4,
,,,,,,,,,,,,{8}2-5[8:1],5-2[8:1],2-7[8:1],7-2[384:47],7-5[8:1],
,5x-2[8:1],,2x-7[8:1],,7x-4[8:1],,3b>8b[8:1],
,,,6>3[8:1],,,,1<6[8:1],
,,,4x>1[8:1],{24},,,8,7,6,5,8x,7x,6x,5x,4x,
3x,2x,1x,8bx-4b[8:1],,,,,,,,,{8}6bz2b[8:1],,,4bz8b[8:1],
,,{4}7bw3b[8:1],{8},,,E5f/B5/B4/A5/A4,
{16},,2,7,2,7,2,7,2,7,{24}1x,8x,1x,8x,1x,8x,1x,8x,1x,
8x,1x,8x,1bxz5b[8:3]*s5b[8:3],,,,,,,,,,,,,,,,,,{8}B5f/B6/E6/B4/E5,
,1,8,2,7,3qq8[4:3],,,6,
,,5,,6,,7qq4[4:3],
,1,,,{2}1w5[8:7],
{8},,,,,,,,,1-5[8:1],
,1/7-4[8:1],,7b,,,7/3-7[8:1],
3/7-3[8:1],,8z4[8:1],,8b,,,,1>4[8:1]*<6[8:1],
,1-5[8:1],,1b,,,3/7-3[8:1],
7/3-7[8:1],,1,{32},,,,E3,B3,B4,E5,E7,B6,B5,E5,E2,B2,B3,B4,
E8,B7,B6,B5,{8}E5f/1bw5[8:13],,,,,,,,,,,,,,,,8bw4b[2:3],
{1},{4},,,{8},{16}2,
6,2,6,2,6,2,6,1,5,1,5,1,5,
1,5,{24}8x,4x,8x,4x,8x,4x,8x,4x,8x,4x,8x,4x,8x,4x,8x,4x,8x,4x,8x,4x,8x,
4x,8x,4xq5<1[24:31],8xq1>5[4:5],{1},{4},{16},,,{64},{384},A5f,
{8}A1f,,,,3,
4,3h[4:1],,1-6[8:1],,1,
,2-5[8:1],2,7-4[8:1],7,3-8[8:1],3,6,
6,6,5,6h[4:1],,8-3[8:1],,8,
,7-4[8:1],7,2-5[8:1],2,6-1[8:1],6,3,
3,2pp6b[8:5],,,,7-4[8:1],,7pp3b[8:5],
,,,,,Cf,,,,6h[4:1]/5h[4:1],
,,3h[4:1]/4h[4:1],,,7h[4:1]/8h[4:1],
,,{4}1h[4:1]/2h[4:1],{24},,,3x,4x,5x,6x,7x,8x,1x,2x,3x,
{8}4x,6,6,2,2,7,7,3s7<6z2b[4:3],
{1}3,
,,,,,,,,,,,,,,,,,,,,,,,,,,,,,,,,,,{8},8-6[8:1]/2-6[8:1],
8/2,8/2>4-8[4:1],,8<6-2[16:3],,5,
,1-3[8:1]/7-3[8:1],1/7,1/7<5-1[4:1],,1>3-7[4:1],,4,
,2,2,2,2,2,2,2,
,2,{4}2,2,2h[8:1],
{8},2,2,2,,2,,2,
,2,2,2,,2,,2,
,2,{4}2,{8}2,2,,2,
{4}2,{8}2,2,,2h[4:1],,,,2,
2,2,,2,,2,
,2,2,2,,2,,2,
,2,2,2,2,2,2,2,
,2,{4}2,2,2h[8:1],
{8},2,2,2,,2,,2,
,2,2,2,,2,,2,
,2,{4}2,{8}2,2,,2,
{4}2,{8}2,2,,2h[4:1],
E
&lv_6=14.8
&des_6=DSAT
&inote_6=
(245){4}5s1[2:1]*s1[2:1],{24},,,,,,,,,,,,,,,,,,B8,
B7,B6,B5,B4,B3,B2,B1,B8/E1,B7/E8,B6/E7,B5/E6,B4/E5,B3/E4,B2/E3,B1/E2,E1/D1/A1,D8/E8/A8,D7/E7/A7,D6/E6/A6,E5/D5/A5,E4/D4/A4,E3/D3/A3,E2/D2/A2,
{1}A1/D1/A8/E1f/5xs1>4z8[8:13]*s1>4z8[8:13],
,4bxz8<5s1b[8:13],
{2},Cfh[2:1],
{1}5xs1>5[8:13]*z1<5[8:13],
,4bx<8s4b[8:13]*>8z4b[8:13],
{8},,,,,B4f,,,3bxh[16:1]/1bxh[16:1],
2,2,2,2,2,2,2,
6bxh[16:1]/8bxh[16:1],7,7,7,7,7,7,7,
{4}2bx>4[8:1],7<5[8:1],1-5[8:1],8-4[8:1],
3bx>1[8:1],6<8[8:1],4-8[8:1],5-1[8:1],
2bx-4[8:1],2/8bx-6[8:1],8/1bx-5[8:1],1bx,
{16}4,8,4,8,4,8,4,8,{32}5x,6x,7x,8x,1x,2x,3x,4x,5x,6x,7x,8x,1x,2x,3x,4x,
{1}5x/Ch[4:3],
{4}8w4[8:1],8,1w5b[8:1],1b,
{8}8-6>4[4:1],8,{4}4v7[8:1],2-6[8:1],2,
{8}7-4[8:1],7,1-5[8:1],1,8-4[8:1],8,2-5[8:1],2,
7,7,{4}1-3<5v2[4:1],7-3[8:1],7,
{8}5x/1x-5b[8:1],1x/5x-1b[8:1],{4}1x/5x,{32}7bx,6x,5x,4x,3x,2x,1x,8x,,,,,,,,,{4}8v5[8:1],
8x/B2/B3/E3,4v1[8:1],4x/B7/B6/E7,
8<5[8:1],8x/B4/B3/E4,1>4[8:1],B6/E6/B5/1x-7[8:1],
1x-6[8:1],1x-4[8:1],1x-3[8:1],1x-7b[8:1],
1bx-6b[8:1],1bx-4b[8:1],1bx-3b[8:1],1bxw5b[4:1],
,,3h[8:1]/6-4[8:1],6/3h[8:1],
3h[8:1]/7-5[8:1],7/3h[8:1],3h[8:1]/8-6[8:1],8/3h[8:1],
3h[8:1],3h[8:1]/8<5[8:1],3h[8:1],3h[8:1]/4<7[8:1],
3h[8:1],8h[8:1]/3h,{16}2,1,2,1,2,1,2,1,
{8}8bx-5[8:1],,,4b-1[8:1],,,{4}6b-3[8:1],
{8},2b-8v5p1b[16:5],,,,,{4}E1f/D1/A1/A8/B8/B1,
{24}7x,6x,5x,3,,4,,3,,6x,7x,8x,{12}2,1,2,{96}1x,,,8x/2x,,,{32}3xh/7xh,4x/6x,{8}5xh,
{32}1x/E7,B6,B5,E5,,,,,8x/E3,B3,B4,E5,,,,,8x/2bh[8:1],7,6,5,,,,,1x/7bh[8:1],2,3,4-8[8:1],,,,,,,,,,,,,{4}6h[8:1]/1-3[8:1],
1/6h[8:1],6h[8:1]/4-2[8:1],
4/6h[8:1],6h[8:1]/1-4[8:1],1/6h[8:1],6h[8:1]/5>2[8:1],
6h[8:1],6h[8:1]/1>4[8:1],6h[8:1],6h/5w1[8:1],
,8xh[16:1]/2xh[16:1],{24}8,7,6,5,{12}4,{24}2,3,4,5,{12}6,
{8}8bx<5[8:1],,,3b>8[8:1],,,{4}6b>3[8:1],
{8},8bw4b[16:1],,,,,5bx/3bx,{16}2,6,
2,6,1,7,1,7,8,8,8,8,8h,8h,8h[32:1],8h[32:1],8h[32:1],8h[32:1],
{4}8b<8b[2:1]*-6-4-2-8b[2:1],,,A8f,
{8}E8,B7,B6,B5,E5,,,E2/B1/B2,
,,{4}E8/B7/B8,B3/B4/E4,B6/E6/B5,
{8}B7/E7/B6/B2/B3/E3,,,5x-3-1-7-5[8:9]/4x-6-8-2-4[8:9],,,,,,,,,,,,,{4}1-5[8:1],
1/7-4[8:1],{8}7b,,,7/3-7[8:1],
{4}3/7-3[8:1],8z4[8:1],{2}8b,
{4}1>4[8:1]*<6[8:1],1-5[8:1],{8}1b,,,3/7-3[8:1],
{4}7/3-7[8:1],1,{32}E3,B3,B4,E5,E7,B6,B5,E5,E2,B2,B3,B4,E8,B7,B6,B5,
{1}E5f/1bw5[8:13],
,8bw4b[2:3],
{16},,,,,,,,,,,,,,,,2,
6,2,6,2,6,2,6,1,5,1,5,1,5,1,5,
{24}8bx,4bx,8bx,4bx,8bx,4bx,8bx,4bx,8bx,4bx,8bx,4bx,8bx,4bx,8bx,4bx,8bx,4bx,8bx,4bx,8bx,4bx,8bx,4bx<8q1b[24:31],
{1}8bx>4q5b[4:5],
{2},A5f/A1f,
{8}8-6-4[8:1],4-7[8:1],{4}8,1-5[8:1],1,
{8}3-1-7b[4:1],7,{4}7-2b[16:3]*<4[8:3],{8}D7,D6,D5,D4,
7,7,{4}7-2[8:1],4-7-5-8[8:3],3x,
{8}2q5b[8:5],2,{4}2,7-4[8:1],7x-1-5-3b[2:1],
,,A3f,1-5[8:1],
{2}1-7-3-5b[2:1],Cf,
{8}2bxh[8:1]/6bxh[8:1],,,1h[8:1]/5h[8:1],,,{4}8h[8:1]/4h[8:1],
{8},7h[8:1]/3h[8:1],{16},,,,8b/4b,1/5,6/2,7/3,8/4,1,2,3,
{8}4/1-5[8:1],1,7-4[8:1],7,2-5[8:1],2,8<7<6>5>4>3>2<1b[32:13]*<8<1b[8:7],8,
{32}D8,A7,D7,A6,D6,A5,D5,A4,D4,A3,D3,A2,D2,A1,D1,A8,D8,A7,D7,A6,D6,A5,D5,A4,D4,A3,D3,A2,{8}D2,
3-5[8:1],3,7-1[8:1],7,2-6[8:1],2,8-4[8:1],8,
8x/1-5[8:1],1,1x/6,6,{4}2h[16:1]/6xh,7h[16:1]/3xh,
{8}8-4[8:1],8,2-5[8:1],2,7-4[8:1],7,1>2>3<4<5<6<7>8b[32:13]*>1>8b[8:7],1,
{32}D2,A2,D3,A3,D4,A4,D5,A5,D6,A6,D7,A7,D8,A8,D1,A1,D2,A2,D3,A3,D4,A4,D5,A5,D6,A6,D7,A7,{8}D8,
2bxh[8:1]/6bxh[8:1],,,1h[8:1]/5h[8:1],,,{4}8h[8:1]/4h[8:1],
{8},7h[8:1]/3h[8:1],,,7b/3b,8/4,5/1,6/2,
7bxh[8:1]/3bxh[8:1],,,8h[8:1]/4h[8:1],,,{4}1h[8:1]/5h[8:1],
{8},2h[8:1]/6h[8:1],,,2b/6b,1/5,4/8,3/7,
2bxh[16:1]/6bxh[16:1],,,1h[16:1]/5h[16:1],,,{4}8h[16:1]/4h[16:1],
{8},7h[16:1]/3h[16:1],{24},,,,,,7b/3b,8/4,5/1,6/2,7/3,8,1,2,3-7[8:1],4,5,6,
{1}7b/Cf/3-1-7-5-3-5-7-1-3b[8:27]*>3<3[8:27],
,,,{8}E6,
,,E2,,,{4}E8,
,B4/B3,B7/B8,{8}E3,E4,
E5,,,B6/B5,,,{4}B1/B2,
,B8/E8/B7,B3/E4/B4,C,
{2}8x<5[8:1],1x>4[8:1],
{4}6,6,7,7,
{2}1x-3-5[16:1]/2-4[16:1],8x-6-4[16:1]/7-5[16:1],
{4}3,3,2,2,
6x-8-2<7[2:1],5,4,3,
2x-8-6<1[2:1],6,5,4v7[8:1],
{8}3x,3,6,6,2,2,7,7,
{16}1x,8,1,8,1,8,1,8,{8}2h[8:1],7h[8:1],{4}2-5b[8:1],
8b,8,8/6-2[8:1],8,
7b/1-4[8:1],7,7/5-2[8:1],7,
6bh[8:1]/8-3[8:1],6h[8:1],6h[8:1]/4-1[8:1],6h[8:1],
5bh[8:1]/7-2[8:1],5h[8:1],5h[8:1]/3-8[8:1],5h[8:1],
6b-1b[8:1],6,{8}3,3,7,7,
{16}1,2,8,7,2,3,7,6,{24}B1,B2,B3,B7,B6,B5,E2,E3,E4,E8,E7,E6,
{1}Ch[8:7],
{4}8w4[8:1],8,1w5b[8:1],1b,
{8}2/7x-3[8:1],7,{4}1-3-5-2[16:5],5,7-4[8:1],
{8}7/1x-5[8:1],1-3-8[16:5],{4}7,7-4[8:1],7,
{8}5/2x-6[8:1],2,8v5[8:1],8,4x,3x,{4}2x/4x,
{8}1bx-5b[8:1],5bx-1b[8:1],,8bx,{32},,,,2b/8bh[4:1],3,4,5,{4}6bh[8:1],
{8}7/2x-6[8:1],2,{4}8-6-4-7[16:5],4,2-5[8:1],
{8}2/8x-4[8:1],8-6-1[16:5],{4}2,2-5[8:1],2,
{8}7h[16:1]/5x>1[32:3],7,,6h[16:1]/8x-2-4[32:3],{4}6,{8}7h[16:1]/5x>1[32:3],7,
,6h[16:1]/8x-2-4[32:3],{4}6,{24}5,6,5,6,5,6,{4}7x/4x,
7h[8:1]/3x>8b[8:1],{24}7x/3x-7[8:1],6/D7,5/D6,4/D5,,,{4}3x/1x-5[8:1],1/6x,
2h[8:1]/6x<1b[8:1],{24}2x/6x-2[8:1],3/D3,4/D4,5/D5,,,{4}6x/8x-4[8:1],8/3x,
5xh[8:1]/1>4b[8:1],{24}1/5bx<8<5b[8:1],6/D6,7/D7,8/D8,,,4bx,3/D4,2/D3,1/D2,,,{8}6x/2x,6x/2x,
8bx-4b[8:1],4bx-8b[8:1],,1bx,{32},,,,7b/1bh[4:1],6,5,4,{4}3bh[8:1],
{8}7xv4[8:1],7,3x-8[8:1],3,5x,5,{24}5x/1x,2/6/D6/D2,3/7/D7/D3,4/8/D8/D4,,,{8}3xv8[8:1],
3,7x-4[8:1],7,1x,1,{24}1x/5x,6/2/D6/D2,7/3/D7/D3,8/4/D8/D4,,,{8}4h[16:1]/1x<5[32:3],
4,,1h[16:1]/4x-6-8[32:3],{4}1,{8}4h[16:1]/1x<5[32:3],4,
,1h[16:1]/4x-6-8[32:3],{4}1,{24}2,1,2,1,2,1,{4}8x/3x,
{8}B8,B7,B6,B5,B4,,,B6/B5/B1/B2,
,,{4}B7,B3,B6,
{1}B2/B3/E3/Ch[1:1],
{4}1-5[2:1],,,7pp4[4:3],
7,,,3pp8b[4:3],
3,,,7-4[8:1],
1-5[8:1],8-4[8:1],2-5[8:1],7qq3b[8:3],
1,1,1bw5b[8:1],1b,
{8}2-5[8:1],2,8-4[8:1],8,{32}3x,2,{16}1h[16:3],{32},,,,5xh,6/2,3/7,4/8,,,,,{8}3-8[8:1],
3,5-1[8:1],5,{32}2x,3,{16}4h[16:3],{32},,,,8xh,7/3,6/2,1/5,,,,,{8}8/4,
8/4,1/5,1/5,2b/6x,6b/2x,7x/3b,7b/3x,
4b/8b,8b-3b[8:1]/4b-7[8:1],{32},,,,,,,,,,,,2x/6x,1/5,8/4,7/3,{4}2b/6b,
{8}2-5b[8:1],2,2/8-4b[8:1],8,{32}4x/8,3,2,1h[32:5],,,,,5xh,6/2,7/3,8/4,,,,,{8}7-4b[8:1],
7,7/1-5b[8:1],1,{32}5x/1,6,7,8h[32:5],,,,,4xh,3/7,2/6,1/5,,,,,{8}7h[16:1]/8>3b[16:1],
7,,8h[16:1]/7<4b[16:1],{4}8,{8}1h[16:1]/2>5b[16:1],1,
,2h[16:1]/1<6b[16:1],{4}2,{24}2,1,2,1,2,1,{4}8x/3x,
{24}6,5,6,{96}4bx,,,3bx,,,{16}2bx,{48},,,,,,{24}6,5,6,{32}4bx,3bx,2bx,1bx,{96},,,,,,,,,,,,{24}6b-1b[12:1],5,6,{96}4bx,,,3bx,,,{32}2bx,1bx,
{4}8bx,{32}2x,3,4,5,8x,7,6,5,B2,B3,B4,B5,B6,B7,B8,B1,E3/B2/D3,D4/E4/B3,D5/E5/B4,D6/E6/B5,D7/E7/B6,D8/E8/B7,D1/E1/B8,D2/E2/B1,
{1}D3/E3/B2/Ch[8:1],
E
&lv_7=9.1
&des_7=
&inote_7=
(245){4}5/4,4,4,4,
5/4,4,4,4,
5/4,4,4,4,
{1}5/4,
,,,,,,,,,,,,,,,,,,,,,,,,,,,,,,,,,,,,,,,,,,,,,,,,,,,,,,,,,,,,,,,,,,,,,,,,,,,,,{4},,,{8},3,
E
