&title=KEY
&artist=Mylta
&des=Dark Inside.
&first=-1.043
&des_5=Dark Inside.
&lv_5=14
&inote_5=(172.03){4},,,Ch[16:0],
{8}E8,B8,B1,E2,E4,E5,{4}E6,
{8}A8/A1,A7/A2,A6/A3,A5/A4,{4}Cf,{8}7xh[8:3],{16}3,4,
{4}5-8q4-1[8:3],{8}7x,7x,{4}7x,{8}8/2pp5[2:1],8/2,
{4}2b/8h[4:3],,,1,
{32}1q7b[2:3]/8-4-8[2:3],7/2,6/3,5/4,{1},{4},,,{16},,{32}1b/2b-7-4-1-6-3-8-5[2:3]*v7v4v1v6v3v8v5b[2:3],
3/8,4/7,5/6,{1},{4},,{16},,{4}A5f,
1-6[2:1],4/1x,4,4,
8q4[2:1],6/8x,6,6,
{8}6x,6x,5,5,4,4,3,3,
{4}2xw6[8:1],2,{2}Ch[4:1],
{32}8x/2-6-3-8[8:3],D8,7x,D7,6x,D6,5x,D5,{4}4xh[4:1],{8},7bh[4:1],{16}1x,2,3,4,
5/8x,7,6,5,4/1x,2,3,4,5/8x,7,6,5,{4}4/B1f/E2/B2,
{8}7h[8:1],2h[8:1],8h[8:1],1bh[8:1],{4}8<7<6>5>4[4:1],8,
{16}1b,2x,3x,4x,5x/8,7,6,5,4,3,2,1,8/4x-8[8:1],3x/7x,2x/6x,1x/5x,
{4}8x/4x,7x-3-1-5b[8:3],{32}7/E2,B2,,,,,,,{16}3x,2x,1x,8x,
{4}7xp3p7<6>5>4>3[4:3],7,,,8-5-7[4:1],
{8}8/1v4[8:1],A5,{4}1,{16}2,1,8,7,
6/1,2,3,4,5/2,1,8,7,{12}6/2x,6x/2x,6x/2x,5x/1x-5-3-6-8[2:1],5x/1x,5x/1x,
{8}1x/5x,,,5x-1[8:1],,5,{16}A1,A8,A7,A6,
A5/A1,A2,A3,A4,A5,A6,A7,A8,5x/A1,6x,7x,8x,{4}1x,
{8}2h[8:1],7h[8:1],1h[8:1],8bh[8:1],{4}1>2>3<4<5[4:1],1,
{16}8b,7x,6x,5x,4x/1,2,3,4,5,6,7,8,1/5x-1[8:1],6x/2x,7x/3x,8x/4x,
{4}1x/5x,7x-3-1-5b[8:3],{32}7/E2,B2,,,,,,,{16}3x,2x,1x,8x,
{4}7xp3p7<6>5>4>3[4:3],7,,,8-5-7[4:1],
{8}8/1v4[8:1],A5,{4}1,{16}2,1,8,7,
6/1,2,3,4,5/2,1,8,7,{12}6/2x,6x/2x,6x/2x,5x<1[2:1]/1x>5b[2:1],5x/1x,5x/1x,
{4}1x/5x,,,7xV13b[2:1]/3V57[2:1],
,,,B7/B8/E8/D8/A7/3-6[8:1],
{8}3/8-4[8:1],7,8/2-6[8:1],1,{4}7-3[8:1]/2-8[8:1],7/2-5-1[4:1],
2,8-4[8:1],{8}8/2-6[8:1],3,{4}2/8w4[8:1],
8<5[8:1]*>3[8:1],8-4[8:1],8/1<2[2:1],1h[2:1],
{8},,,,8/2h[16:1],7,6,5,
{4}2b/4h[1:1],{8}2,2,,8,,6h[8:3],
,,{4}8h[4:1],1h[4:1],3h[4:1],
{8}8-4[8:1],7,{4}8/6-2[8:1],6/4-8[8:1],4/7,
{8}3/5h[4:1],2,{4}1h[4:1],{8}7h[16:1],1,,B7,
E4fh[1:1],8,7,6,5,8,7,6,
{4}5,{8}B1,B2,B3,B4,{4}E7f/B7/B6,
{8}1-5[8:1],2,{4}1/3-7[8:1],3/5-1[8:1],2/5,
{8}6/4h[4:1],7,{4}8h[8:3],{16}2h[16:1],,,7,6,5,4,3,
{1}2h[1:1]/B3fh[1:1],
{8},,B8,B7,B6,B5,{4}3-7[16:1],
{64}3/6,B3f,,,,,,,,,,,,,,,{4}5h[64:1],1x,5h[64:1],
2x,5h[64:1],3x,6h[64:1],
4x,7h[64:1],5x,8h[64:1],
1x,{8}1x/8h[64:1],1x,1x,1x/8h[64:1],{4}8h[64:1]/1xV75[4:3],
1/3,3,3,3p7[4:3],
3/8,8,8,8,
{8}1/2,2/1,4/3,4/3,8x/7bx,3bx/4x,2bx/1bx,6bx/5bx,
{4}Cf,{8}3x/7x,3,7,7,{4}3-7[8:1]/7-3[8:1],
7/3,{32}8x/3x,7x,6x,5x,,,8x/3x,7x,6x,5x,,,8x/3x,7x,6x,5x,,,8x/3x,7x,6x,5x,,,{8}3h[16:1],
7h[16:1],3-8-4-7[8:3],7,3,,,8h[8:1],
{32},,,,,,,,1x/8x,2x,3x,4x,,,1x,2x,3x,4x,,,1x,2x,3x,4x,,,1x,2x,3x,4x,,,{8}6h[16:1],
2h[16:1],6-1-5-2[8:3],2,{2}6,
{8},1bxh[8:1],{32}8x,7x,6x,5x,,,8x,7x,6x,5x,,,8x,7x,6x,5x,,,8x,7x,6x,5x,,,{8}8h[16:1],
2h[16:1],6-1-5-2-6[2:1],2,{2}6,
{32},,,,,,,,1x/5x,2x,3x,4x,{16}5bxh[16:3],{32}1x,2x,3x,4x,,,1x,2x,3x,4x,{16}5bxh[16:3],{32}1x,2x,3x,4x,,,{8}3xh[16:1],
7h[16:1],3-8-4-7-3[2:1],7,{2}3,
{4}A3h[8:1],{32}8x,7x,6x,5x,{16}4bxh[16:3],{32}8x,7x,6x,5x,,,8x,7x,6x,5x,{16}4bxh[16:3],{32}8x,7x,6x,5x,,,{8}8x,
{16}1,1,{4}1h[8:1],{8}8v5-7[4:1],1,{4}8,
{16},,,,6h[8:1],,,E2h[8:1],,,{8}6h[8:1],{16},E4h[8:1],,,{4}6<6<2[4:3],
6/2,,2x-6b[8:1],
{32},,,,,,,,A1,A2,A3,A4,,,A8,A7,A6,A5,,,A1,A2,A3,A4,,,A8,A7,A6,A5,,,{8}1/8,
{16}8,1h[16:3],{4}8h[8:1],{16},1/8,,,{4}7b/2b-6-8-4-1-5b[4:3],
{1}2,
{8}7-1-3b[2:1]/3-5-7[2:1],1x/5,{4},,,(86.01){32}1V75[16:1],
2,3,4,{8}5,{16}1,2,{8}2,2/7,2/8,{16}1bh[8:1],B3h[16:3],{32},,,,8q5[16:1],
7,6,5,{8}4,{4}8h[8:1],{8}8/2,8/3,{4}8bh[4:1]/4bh[8:1],
{32}4q2[16:1],3,2,1,{8}8,4,{16}7,7,{8}7h[8:1],{16}3b,6h,2h,5h,1h,4h,
{32}8bx-5-2-7b[16:3],1,2,3,{8}4h[16:3],8,A3h[4:1],{16},,B8,B7,E7,B6,{8}B5f,
{16}2pp4[16:1]/8<4[16:1],7/1,{8}6/8,2>4[16:1]/8p4[16:1],7/1,8/2,{16}E1,E2,E3,E4h[16:1],{32},,,,8V24[16:1],
7,6,5,{8}4,8,7,7/2,7/1,{4}8bh[8:1],
{32}1p4[16:1],2,3,4,{8}5,{4}1h[8:1],{8}1/7,1/6,{4}5bh[8:1]/1bh[8:1],
{8}6bh[4:1]/2bh[4:1],,,7bh[4:1]/3bh[4:1],,,{4}8b/4bw8[16:1],
{48},,,,,,,,,,,8x,{64}7x,,,,,,,7xh[64:9]/1xh[64:13],,,,,,,,,,,,,,,,6x,5x,4xh[64:15],,,,,,,{4}8xh[2:1],
{64},,,,,,,,,,,,,,,,B6,B5,,,,,,,,2xh[32:9],,,,,,,,,,,,,,,,,,8xh[32:9],,,,,,,,,,,,,,,,,,1bxh[64:131],{4},{16},,{32},{8}B7h[8:13]/E7h[8:13]/B6h[8:13],
E
