&title=人と事象が巡り逢う确率についての朝の考察
&artist=noa
&first=0.018
&des=Tane
&lv_1=1
&lv_2=4
&lv_3=6
&lv_4=9
&lv_5=13+
&inote_1=(110)
{1},
{16}1,,,,
,,,,
,,,,
,,,,
{16}5,,,,
,,,,
,,,,
,,,,
{16}2,,,,
,,,,
,,,,
,,,,
{16}6,,,,
,,,,
,,8b,,
,,,,
{8}1,,,
,,,,,
{8}8,,,
,,,,,
{8}2,,,
,,,,,
{8}7,,,
,,,,,
{8}1,,,
,,,,,
{8}8,,,
,,,,,
{8}3,,,
,,,,,
{8}8,,,
,1b,,,,
{2}1,,
{2}8,,
{2}2,,
{2}7,,
{2}1,,
{2}8,,
{2}2,,
{2}7,,
{2}2,,
{2}7,,
{2}2,,
{2}7,,
{2}4,,
{2}8,,
{2}4,,
{8}8,,,,
,,1b/8b,,
{8}1,,,,
,,,,
{8}1,,,,
,,,,
{8}8,,,,
,,,,
{8}8,,,,
,,,,
{8}1,,,,
,,,,
{8}1,,,,
,,,,
{8}8,,,,
,,,,
{8}8,,,,
,,,,
{8}1,,,,
1,,,,
{8}1,,,,
1,,,,
{8}8,,,,
8,,,,
{8}8,,,,
8,,,,
{8}4,,,,
4,,,,
{8}4,,,,
4,,,,
{8}5,,,,
5,,,,
{8}5,,,,
5,,,,
{8}1,,,,
,,,,
{8}8,,,,
,,,,
{8}2,,,,
,,,,
{8}7,,,,
,,,,
{8}1,,,,
,,,,
{8}8,,,,
,,,,
{8}2,,,,
,,,,
{8}7,,,,
,,,,
{8}1,,,,
,,,,
{8}8,,,,
,,,,
{1},,,,,,,,E
&inote_2=(110)
{1},
{16}1,,,,
3,,,,
,,,,
,,,,
{16}5,,,,
7,,,,
,,,,
,,,,
{16}2,,,,
4,,,,
,,,,
,,,,
{16}6,,,,
8,,,,
,,8b,,
8b,,,,
{8}1,,3,
,,,,,
{8}8,,6,
,,,,,
{8}2,,3,
,,,,,
{8}7,,6,
,,,,,
{8}1,,2,
,,,,,
{8}8,,7,
,,,,,
{8}3,,1,
,,,,,
{8}8,,7,
,1b,,,,
{8}1,,1^4[8:3],,
,,,,
{8}8,,8^5[8:3],,
,,,,
{8}2,,2v5[8:3],,
,,,,
{8}7,,7v4[8:3],,
,,,,
{8}1,,1-5[8:3],,
,,,,
{8}8,,8-4[8:3],,
,,,,
{8}2,,2p4[8:3],,
,,,,
{8}7,,7,,
,1,1,,
{8}2,,2V84[8:3],,
,,,,
{8}7,,7V15[8:3],,
,,,,
{8}2,,2V48[8:3],,
,,,,
{8}7,,7V51[8:3],,
,,,,
{8}4,,4V25[8:3],,
,,,,
{8}8,,8V61[8:3],,
,,,,
{8}4,,4V62[8:3],,
,,,,
{8}8,,8,,
,,1b/8b,,
{8}1,,,,
1,,,,
{8}1,,,,
3,,,,
{8}8,,,,
8,,,,
{8}8,,,,
6,,,,
{8}1,,,,
1,,,,
{8}1,,,,
1,,,,
{8}8,,,,
8,,,,
{8}8,,,,
8,,,,
{8}1,,1,,
1,,1,,
{8}1,,1,,
1,,1,,
{8}8,,8,,
8,,8,,
{8}8,,8,,
8,,8,,
{8}4,,4,,
4,,4,,
{8}4,,4,,
4,,4,,
{8}5,,5,,
5,,5,,
{8}5,,5,,
5,,5,,
{8}1,,2,,
,,,,
{8}8,,7,,
,,,,
{8}2,,3,,
,,,,
{8}7,,6,,
,,,,
{8}1,,2,,
,,,,
{8}8,,7,,
,,,,
{8}2,,3,,
,,,,
{8}7,,6,,
,,,,
{8}1,,4,,
,,,,
{8}8,,6,,
,,,,
{1},,,,,,,,E
&inote_3=(110)
{1},
{16}1,,,,
3,,,2,
,,,,
,,,,
{16}5,,,,
7,,,6,
,,,,
,,,,
{16}2,,,,
4,,,3,
,,,,
,,,,
{16}6,,,,
8,,,7,
,,8b,,
8b,,,,
{8}1,,,3^6[4:1],
,,,,
{8}8,,,6^3[4:1],
,,,,
{8}2,,,3^6[4:1],
,,,,
{8}7,,,6^3[4:1],
,,,,
{8}1,,,2q5[8:3],
,,,,
{8}8,,,7p4[8:3],
,,,,
{8}3,,,1>5[4:1],
,,,,
{8}8,,,7-5[8:1],
,1,1b,,
{8}1,,1^4[8:3],,
,,,,
{8}8,,8^5[8:3],,
,,,,
{8}2,,2v5[8:3],,
,,,,
{8}7,,7v4[8:3],,
,,,,
{8}1,,1-5[8:3],,
,,,,
{8}8,,8-4[8:3],,
,,,,
{8}2,,2p4[8:3],,
,,,,
{8}7,,7,,
,1,1,,
{8}2,,2V84[8:3],,
,,,,
{8}7,,7V15[8:3],,
,,,,
{8}2,,2V48[8:3],,
,,,,
{8}7,,7V51[8:3],,
,,,,
{8}4,,4V25[8:3],,
,,,,
{8}8,,8V61[8:3],,
,,,,
{8}4,,4V62[8:3],,
,,,,
{8}8,,8,,
,,1b/8b,,
{8}1,,7,,
1,,6,,
{8}1,,5,,
3,,1,,
{8}8,,2,,
8,,3,,
{8}8,,4,,
6,,8,,
{8}1,,7,,
1,,5,,
{8}1,,3,,
1,,5,,
{8}8,,2,,
8,,4,,
{8}8,,6,,
8,,4,,
{8}1h[8:1],,1h[8:1],,
1h[8:1],,1h[8:1],,
{8}1h[8:1],,1h[8:1],,
1,,1,,
{8}8h[8:1],,8h[8:1],,
8h[8:1],,8h[8:1],,
{8}8h[8:1],,8h[8:1],,
8,,8,,
{8}4h[8:1],,4h[8:1],,
4h[8:1],,4h[8:1],,
{8}4h[8:1],,4h[8:1],,
4,,4,,
{8}5h[8:1],,5h[8:1],,
5h[8:1],,5h[8:1],,
{8}5h[8:1],,5h[8:1],,
5,,5,,
{8}1,,,2^5[4:1],
,,,,
{8}8,,,7^4[4:1],
,,,,
{8}2,,,3v8[4:1],
,,,,
{8}7,,,6v1[4:1],
,,,,
{8}1,,,2qq5[8:3],
,,,,
{8}8,,,7pp4[8:3],
,,,,
{8}2,,,3^6[4:1],
,,,,
{8}7,,,6^3[4:1],
,,,,
{8}1,,,4v1[4:1],
,,,,
{8}8,,6,,
,,,,
{1},,,,,,,,E
&inote_4=(110)
{1},
{16}1,,,,
3,,,2,
,,2,,
2,,,,
{16}5,,,,
7,,,6,
,,6,,
6,,,,
{16}2,,,,
4,,,3,
,,3,,
3,,,,
{16}6,,,,
8,,,7,
,,7,,
8b,,,,
{8}1,1,1,3^6[4:1],
,,,,
{8}8,8,8,6^3[4:1],
,,,,
{8}2,2,2,3^6[4:1],
,,,,
{8}7,7,7,6^3[4:1],
,,,,
{8}1,1,1,2q5[8:3],
,,,,
{8}8,8,8,7p4[8:3],
,,,,
{8}3,3,3,1>5[4:1],
,,,,
{8}8,8,8,7-5[8:1],
,1,1b,,
{8}1,1,1^4[8:3],,
5,6,7,,
{8}8,8,8^5[8:3],,
4,3,2,,
{8}2,2,2v5[8:3],,
6,7,8,,
{8}7,7,7v4[8:3],,
3,2,1,,
{8}1,1,1-5[8:3],,
6,7,8,,
{8}8,8,8-4[8:3],,
3,2,1,,
{8}2,2,2p4[8:3],,
6,7,,,
{8}7,7,7q5[8:3],,
,1,1,,
{8}2,2,2V84[8:3],,
5,6,7,,
{8}7,7,7V15[8:3],,
4,3,2,,
{8}2,2,2V48[8:3],,
7,6,5,,
{8}7,7,7V51[8:3],,
2,3,4,,
{8}4,4,4V25[8:3],,
6,7,8,,
{8}8,8,8V61[8:3],,
2,3,4,,
{8}4,4,4V62[8:3],,
7,8,1,,
{8}8,8,8,,
,,1b/8b,,
{8}1h[8:3],8,7,6,
1h[8:3],7,6,5,
{8}1h[8:3],6,5,4,
3,2,1,8,
{8}8h[8:3],1,2,3,
8h[8:3],2,3,4,
{8}8h[8:3],3,4,5,
6,7,8,1,
{8}1h[8:3],8,7,6,
1h[8:3],6,5,4,
{8}1h[8:3],4,3,2,
1,7,5,3,
{8}8h[8:3],1,2,3,
8h[8:3],3,4,5,
{8}8h[8:3],5,6,7,
8,2,4,6,
{8}1h[8:1],7,4h[8:1],2,
4h[8:1],6,1h[8:1],3,
{8}1h[8:1],7,4h[8:1],2,
4,5,6,7,
{8}8h[8:1],2,5h[8:1],7,
5h[8:1],3,8h[8:1],6,
{8}8h[8:1],2,5h[8:1],7,
5,4,3,2,
{8}1h[8:1],6,4h[8:1],2,
4h[8:1],7,1h[8:1],3,
{8}1h[8:1],7,4h[8:1],3,
5,7,1,3,
{8}8h[8:1],3,5h[8:1],7,
5h[8:1],2,8h[8:1],6,
{8}8h[8:1],2,5h[8:1],6,
4,2,8,6,
{8}1,1,1,2^5[4:1],
,,,,
{8}8,8,8,7^4[4:1],
,,,,
{8}2,2,2,3v8[4:1],
,,,,
{8}7,7,7,6v1[4:1],
,,,,
{8}1,1,1,2qq5[8:3],
,,,,
{8}8,8,8,7pp4[8:3],
,,,,
{8}2,2,2,3^6[4:1],
,,,,
{8}7,7,7,6^3[4:1],
,,,,
{8}1,2,3,4v1[4:1],
,,,,
{8}8,7,6,5,
,,,,
{1},,,,,,,,E
&inote_5=(110)
{1},
{16}1,,,,
3,,,2,
,5,6,7,
8,1,2,3,
{16}4,,,,
2,,,3,
,7,6,5,
4,3,2,1,
{16}8,,,,
6,,,7,
,4,3,2,
1,8,7,6,
{16}5,,,,
7,,,6,
,,1,,
1b,,,,
{16}8,,8,,
8,,8,8h[2:1],
,1,2,3,
4,5,6,7,
{16}8,,8,,
8,,8,8h[2:1],
,7,6,5,
4,3,2,1,
{16}8,,7,,
6,,5,5h[2:1],
,6,7,8,
1,2,3,4,
{16}5,,5,,
5,,5,5h[2:1],
,4,3,2,
1,8,7,6,
{16}5,,5,,
4,,4,4h[2:1],
,5,6,7,
8,1,2,3,
{16}4,,4,,
4,,4,4h[2:1],
,3,2,1,
8,7,6,5,
{16}4,,3,,
2,,1,1h[2:1],
,8,7,6,
5,4,3,2,
{16}1,,1,,
1,,1,1h[16:5],
,,8,,
8b,,,,
{16}6,,6,,
6,,6,6,
,65,4,3,
62,1,68,7,
{16}6,,6,,
6,,6,6,
,67,8,1,
62,3,64,5,
{16}8,,8,,
8,,8,8,
,81,2,3,
84,5,86,7,
{16}8,,8,,
8,,8,8,
,87,6,5,
84,3,82,1,
{16}8,,8,,
1,,1,1,
,18,7,6,
15,4,13,2,
{16}1,,1,,
1,,1,1,
,12,3,4,
15,6,17,8,
{16}3,,3,,
3,,3,3,
,34,5,6,
37,8,31,2,
{16}3,,3,,
3,,3,3,
,,45,,
45,,,,
{16}5,,5,,
5,,5,5,
,58,1,2,
63,4,75,6,
{16}8,,8,,
8,,8,8,
,85,4,3,
72,1,68,7,
{16}5,,45,,
4,,4,4,
,41,8,7,
36,5,24,3,
{16}1,,1,,
1,,1,1,
,14,5,6,
27,8,31,2,
{16}4,,46,,
6,,6,6,
,61,2,3,
74,5,86,7,
{16}1,,12,,
2,,2,2,
,25,6,7,
38,1,42,3,
{16}5,,57,,
7,,7,7,
,74,3,2,
61,8,57,6,
{16}4,,34,,
3,,3,3,
,,,,
4b/5b,,,,
{8}8v6[8:1],7,2v4[8:1],3,
6-2[8:1],7,4-8[8:1],3,
{8}6v4[8:1],5,2v8[8:1],3,
6,7,1,2,
{8}3v1[8:1],2,7v5[8:1],8,
3-7[8:1],2,5-1[8:1],6,
{8}3v5[8:1],4,7-3[8:1],6,
{16}1,,2,,
3,5,4,6,
{8}7v5[8:1],6,1v3[8:1],2,
7v1[8:1],8,3-7[8:1],2,
{8}5v3[8:1],6,1v7[8:1],2,
5,4,4,5,
{8}6v8[8:1],7,2v4[8:1],3,
6-2[8:1],5,4-8[8:1],3,
{8}6v4[8:1],7,2,3,
{16}4,6,2,8,
1,7,3,5,
{8}1V35[8:1],2,7V15[8:1],6,
3V51[8:1],2,7V53[8:1],8,
{8}1V37[8:1],2,5V71[8:1],6,
3,2,8,7,
{8}6V48[8:1],7,2V84[8:1],1,
6V82[8:1],5,4V26[8:1],3,
{8}8V64[8:1],7,2V46[8:1],1,
{16}8,,7,,
6,4,5,3,
{8}2V46[8:1],1,8V62[8:1],7,
4V28[8:1],3,6V84[8:1],5,
{8}2V48[8:1],3,6V82[8:1],7,
4,5,5,4,
{8}3V51[8:1],2,7V15[8:1],8,
3V17[8:1],4,5V73[8:1],6,
{8}1V35[8:1],2,7,6,{8}1b/8b,3,1b/8b,6,
{16}1,,2,,
3,,4,4h[2:1],
,3,2,1,
8,7,6,5,
{16}4,,3,,
2,,1,1h[2:1],
,8,7,6,
5,4,3,2,
{16}1,,78,,
6,,5,5h[2:1],
,6,7,8,
1,2,3,4,
{16}5,,6,,
7,,8,8h[2:1],
,1,2,3,
4,5,6,7,
{16}8,,15,,
5,,5,5h[2:1],
,4,3,2,
1,8,7,6,
{16}5,,48,,
8,,8,8h[2:1],
,1,2,3,
4,5,6,7,
{16}8,,14,,
4,,4,4h[2:1],
,5,6,7,
8,1,2,3,
{16}4,,58,,
8,,8,8h[16:5],
,,1,,
1b,,,,
{16}1,,2,,
3,,4,4,
,4,5,6,
7,8,1,2,
{16}36,,,,
45,,1,8,
,,,,
{1},,,,,,,,E
