&title=Ex-Otogibanashi
&artist=『超かぐや姫!』挿入曲
&first=0.008
&des_5=Tane
&lv_5=14
&des=Tane
&inote_5=(190){1},
{8}E6/B5/B4/E4,,,,
{16},3h[16:3],,,5h[16:3],
,,4h[16:3],,
{16},6h[16:3],,,
5h[16:3],,,
,,,E7,
,,E8,,
{16},E2,,,
E3,,,,
{8}7b/B3/E4/A3/E3,,8b/B4/E4/E5/A4,,
1b/B5/E5/E6/A5,,{16}1,1,1,,
{16}2h[16:3],,,4h[16:3],
,,5h[16:3],,
,7h[16:3],,,
1,,,1h[16:17],
{16}8b,,,2b,
,,4b,,
,6b,,,
7b,,,,
{16}4hh[16:3],,,5h[16:3],
,,6h[8:5],,
,,,,
,,,,
{8}1b-4v5-2-4[4:10],,,,
,,,,{8},,,,
,,,,
{8}6,,,7,
,,8,,
{8},1,,,
26,,37,,
{8}8^7-2v8^1[4:6],,,,
,,,,
{8}4,,,,
,,,,
{8}B7h[4:6]/A7h[4:6],,,,
E4,,A3,,
{8}E4,,A3,,
,,,,
{8}35,,35,,
2,,2,,
{8}46,,46,,
7,,7,,
{8}3,3,5,4,
7,7,4,6,
{8}2,2,5,3,
8,3,6,1,
{16}25,,3,4,
3,,6,,
47,,6,5,
6,,3,,
{16}15,,2,4,
3,,6,,
48,,7,5,
6,,3,,
{16}3,4,2,5,
1,6,8,7,
2,1,3,8,
4,7,5,6,
{16}5,6,5,6,
5,6,5,6h[16:9],
,,,,
,,,,
{8}4<3[4:6],,,,
B7/B6/C,,,,
{8},,,,
,,,,
{8}5>6[4:6],,,,
B2/B3/C,,,,
{8},,,,
,,,,
{8}4p8>3[4:6],,,,
B6/E6h[4:1]/B5,,,,
{8},,,,
,,,,
{8}8p4^7[4:4],,,,
E2h[4:1]/A1/A2,,,,
{8},,,,
{16},,8,,
8,1,8h[4:4],,
{8}2,,3,,
4,,5,,{8}2h[8:6],,6,,
5,,4,,
{8}1/B5/A5,,2/B6/A6,,
3/B7/A7,,4/B8/A8,,{8}5/B1/A1,,6/B2/A2,,
7/B3/A3,,8/B4/A4,,
{8}3,4,1bx,8,
4,5,1bx,8,{8}5,6,1bx2,8,
4,5,1bx,8,
{24}1bx/7x,2x/8x,3,4,,,
8bx/2x,7x/1x,6,5,,,
2,1,2,1,,,
{24}4,5,4,5,4,5,
{8}B2/E2,B7/E8,B3/E4,B6/E6,
,,1w5[8:1],,
{16}Cf,,,,
7,,6^3[8:1]/8,,
,,26,,
,,1,,
{16}6,5,6,,
4,,35,,
2h[8:3],,E8,,
E7,,E6,,
{16}3,,3,4,
3,,2-7[8:1]/5,,
,,62,,
,,56,,
{16}6,5,7,,
4-1[8:1]/8,,3,,
6,,,,
18,27,36,,
{16}45,,,,
2,,1/3^6[8:1],,
,,37,,
,,8,,
{16}3,4,3,,
5,,46,,
7,,8,,
8-2b[8:1]*V64[8:1],,,,
{16}B7,C,B3,,{8}7-3[8:1]`1-5[8:1],,
,,4>5[8:3]*<3[8:3],4,
{8},,,,
C/B4/B2/B6,,
{16}1,1,1,,
{8}5xw1[8:1],,Cf,,
,,17,,
{16}3,4,2,,
1h[8:5],,,,
E8,,E7,,
E6,,E5,,
{16}26,,3,5,
4,,5-2[8:1]/7,,
,,58,,
6,,3,4,
{16}3,,6,4,
5^8[8:1],,2,,
45,,,,
27,36,45,,
{16}18,,,,
7,,8/6^3[8:1],,
,,26,,
1,,7,8,
{16}7h[8:7],,1,,
2,,3,,
E4,,E3,,
E2,,E1,,
{24}6b,5,6,,,,
{24}2,1,2,1b,,,
3,,,4,,,
5,,,6,5,6,
{24},,,4,5,4,
,,,2,1,2,
{24}1x,8x,7x,6x,5x,,
1x,2x,3x,4x,5x,,
{24}1,2,1,,,,
,,,7,8,7,
8,,,2,,,
8p1[4:1],1,8,1,,,
{8},,,,
E5f,,,,
{8}4b>7[4:3],,,6,
B7/B6,,,,
{8}5<2[4:3],,,3,
B2/B3,,,,
{8}5>7[4:3],,,6,
B7/B6,,,,
{16}A5,,,C,
,,A1,,
{8}8<3[4:2],,,,
{8}B2/B3,,,2,
1>6[4:2],,,,
{8}B6/B7,,,7,
8<3[4:2],,,,
{8}B2/B3,,,2,
1>6[4:2],,,,
{16}8,,,,
7,,,,
{16}3,4,3,,
6,5,7,4,
{8}8,,8/5^2[4:1],,
8,,8,,
{8}1,,1/4^7[4:1],,
1,,1,,
{8}1,,2/4^7[4:1],,
3,,4,,
{8}8,,7/5^2[4:1],,
6,,5,,
{8}1,1,24,24,
1,1,56,56,
{8}7,8,16,34,
2,1,38,56,
{16}1,,{24}2,3,4,
{16}8,,{24}1,2,3,
{16}8,,{24}7,6,5,
{16}1,,{24}8,7,6,
{16}4,5,4,5,
{24}3,1,3,1,3,1,
{16}4,8,4,8,
{24}2,6,2,6,2,6,
{8},,,,
,,,,{8},,,,
{16},E1,,,
{8},E8,,E7h[8:8],
,E6h[8:6],,,{8},,,,
,,,,
{8}E2,,E3,,
E4h[8:8],,E5h[8:6],,{8},,,,
,,,,
{8},,{16},E7h[16:89],
,,,,{16},E6h[16:83],,,
,,E5h[8:39],,
{16},,,,
E4h[8:36],,,,{8},,,,
,,,,
{8},,,,
,Ch[8:21],,,{8},,,,
,,,,
E
