&title=Le Porteur d'Ombre
&artist=黑皇帝/AKA
&first=0.078
&des=Neon
&lv_6=15
&des_6=Neon
&inote_6=
(220){4},{1},{4},,,{32}1,
2/8,7/3,4/6,{8}5-1>1[4:11]*z1<1b[4:11],{1},,,{4},,,{32}8,
7h/1h,2h/6h,3h/5h,{8}4-8<8[4:11]*s8>8b[4:11],{1},,,{4},,,1x/E8,
1,1x/E7,2,
2x/E6,2,3x/E5,3,
5x/E4,5,6x/E3,6,
6x/E2,7,7x/E1,7,
{8}1/8xh[2:1],1,2,2,3x/B7/B8,3,4x/B6/E7,{16}4,{32}3,2,
{8}8/1xh[2:1],8,7,7,6x/B2/B1,6,5x/B3/E3,5,
{24}1x,2,3,5x,6,7,2x,3,4,6x,7,8,{16}2,1,2,1,2,1,{24}2,1,,2x,
3,4h,5,6h,7,8x/2x,3,4h,5,6h,7,8x/2x,3,4h,5,6h,7,8x/2x,3,4h,5,6h,7,
{4}Cf/8xs4b[6:1],,,1>6[4:3],
8,8,8,7,
7/6,{8}6x/4x,3/5x,{4}4x/2b<7[6:1],7,
6b>3[6:1],3,{8}2x,{16}8,1,{8}8,6x/5,
{4}7x/4-2-6[2:1],5,6-8-3-5[4:3],7,
6,8,7,{8}4/3x,5/2x,
{4}1x/6-4-8[12:5],1,2,2,
{8}3/8,4,5/6,7,{24}3x/8xh,4,5,6,7,8,1x/5xh,2,3,4,5,6,
{4}8xh/7bx-3[6:1],A7/2bxz6b[6:1],{32}8bx,B8,Cf,B4,,,,,{4}5x,
5,5,5,{8}5/4x,3x,
{4}6x/2-6b[8:1],7-1[8:1],3-5b[8:1],7,
4x/8-6>4-2[4:3],3,2,{8}1h,1h,
{4}7b-3[6:1],7/2b-5[6:1],2/6b-1[6:1],6/4b-8[6:1],
4/6b-3[6:1],6/2b-5[6:1],2/8bw4[6:1],{24}8bx,B8,C,B4,,,,,{12}3,
{24},,7h,E7,B6,B5,2,E2,B1,B8,6h,E6,B5,B4,{8}1x,1x,
{24}2b/8h[6:1],3,4,5,{6}6,{24},,7b/1h[6:1],6,5,4,{12}3,,{4}2v5[6:1]/8v5b[6:1],
8x/2x/Cf,4xh[4:1],6,3/7-4-7[4:1],
{8}2,E5,{4}1,{8}4/8,8,3/7,7,
{4}2-8[8:1],2/5-1[8:1],5/4-6[8:1],4/8,
{16}4/8>3[4:1],7,6,5,{4}8/4,{16}5,6,7,8,{8}1-6-4[4:1],3h,
{4}3h,2-8-6[4:1],7,5-2-8[4:1],
2,4h[4:1],{16}2x,1,8,7,{8}6/4,4,
{4}3/5q1[6:1],5b/2q6[6:1],8x/2b,{8}7/4x,3/6,
5/2x,{24}3,4,3,{8}4,8/1x,{24}6,5,6,5,,,{4}4-8[8:1]/7-3b[8:1],
7x/4x/Cf,5x,5,3,
{8}2/5,6,2/5,7,{32}1x,2,3,4,5,6,7,8,{4}5b/1b-5b[8:1],
{24}1x/7,B1,C,B5,,,{4}4x,4,6,
{8}7/4,3,7/4,2,{32}8x,7,6,5,4,3,2,1,{4}8b/4b,
{8}3/5,2,8/1,7,4-1[8:1]/6-4-8[8:1],3,{4}Cf,
{16}2,4,3,7,5,6,3,1,2-6[8:1],6,8,7,{4}Cf,
{24}8b/4h,7,6,5,4,3,2,1,8,3b/7h,4,5,6,7,8,1,2,3,7b/4h,6,5,4,3,2,
1b/7h,6,5,4,3,2,1,8,7,2b/6h,3,4,5,6,7,8/6,1/5,2/4,{4}3w7[8:1],
{24}3b>4b[4:7]*<2[4:7],B3,Cf,B7/B6/B8,{1},{4},,,{16},{48},{1}B3h[1:3]/E4h[1:3]/E3h[1:3],
{2},E7,
{1}4x-6-8-2<1-7-5>4[4:11],
{2},B3/D3,
{1}B1h[1:3]/B2h[1:3]/E2h[1:3],
{2},E6/E5/A5,
{1}4x-8<5-1[4:11],
,E6h[1:3]/B6h[1:3]/E7h[1:3],
{2},A4/D4/A3/E4,
{1}2xpp4pp6pp8pp2[2:5],
{2},A5/B5/B4/E5/A4,
{1}A7/D7/A6/E7/B7/B6,
{4}B6h[1:1],B5h[4:3],B4h[2:1],B3h[4:1],
Cf/E7/E3,,,4,
{1}C/4q5[2:1],
{8}5,5h[8:3],,,{4}4,4/6h[4:1],
{8}5,7/4h[8:5],,,{4}3,3,
{2}C/1p4[2:1],{4}2,3,
{8}2-6-8[2:1],,,5,{4}5,5,
{8}6q3[2:1],6,,,{4}C,1h[2:1],
{8}3,3,,,{4}4,5,
{1}5bq8[1:1]*p2[1:1],
{2},3h[2:1],
{8}4,2/5h[2:1],,,{4}2,2,
{8}E5,E4/A3,,C,{4}B7/A7,E1,
{1}Cfh[2:3]/8x-2-4-6-8[1:3],
{8},,,,,,,,4h,
,,3h,,,{4}2h,
{8},1h,,,{4}1h[4:1],{16}8x,7,6,5,
{4}4/1bv6[8:1],{8}1,7-3[8:1],3-6[8:1],7,,,2,
1,8-3[8:1],7,6,5-8[8:1],4,3,
{4}2bv5[8:1],{8}2,7-4[8:1],4-8[8:1],7,,,1,
8,7-2[8:1],6,5,4-7[8:1],3,2,
{4}1bv4[8:1],{8}1,7-3[8:1],3-8[8:1],7,,,4,
5,6-2[8:1],7,8,1<6[8:1],3,4,
{4}5bv2[8:1],{8}5,8-3[8:1],3-7[8:1],8,,,5,
4,3-6[8:1],2,1,8>3[8:1],7,6,
{4}5,5,5,5`6h,
5`6h,7,7,8`1h,
8`1h,2,2,3`4h,
3`4h,5h[2:1],4,4,
{8}5/4h[4:3],5,6,6,7,7,{4}8b/Cf,
{24}1xh,2,3,7xh,6,5h,2xh,3,4h,8xh,7,6h,1xh,2,3h,4/5,6h,7,8-4[8:1],1,8,1,8,1,
8bw4b[1:1],B8,Cf,B4,{1},{4},{16},{48},{2}1-5[8:1],
{16}6b,4h,7,4h,{8}8,{16}3b,5h,2,5h,{8}1,7/3b,{24}5,4,6,
{8}5,3,{24}8,7,6,5/3,,,{8}2-5[8:1],8-4[8:1],2,8,
{16}3b,5h,2,5h,{8}1,{16}6b,4h,7,4h,{8}8,2/6b,{24}4,5,3,
{8}4,6,{24}1,2,3,4/6,,,{8}8-4[8:1],4-8[8:1],1h,1h,
{16}7bx,6x/4x,5x/3x,4x/2x,{8}3x/1xh[8:1],{16}2bx,3x/5x,4x/6x,5x/7x,{8}6x/8xh[8:1],{4}4bx,
{8}3v6[8:1],6>1[4:1],3,7,{16}8x,7,6,5,4/8x,7,6,5,
{8}8b/4,{24}5,6,4,{8}5,7b/1,{24}4,5,3,4,,,{4}8b/2,
{8}1/7x,{24}2x,3h,4,8x,7h,6,1x,2h,3,4h/8x-4b[6:1],7h,6,2x/5h,,,8b,B8,Cf,B4,{48},,,,{16}2b,
5,3,5,3,6,4b,6,4,7,5,6,4b,5,3,1,
2,8,3,7,4,6,5,6,5,6,4,7,3,6,2,5,
1b,6,1,7,1,8,2b,8,3,8,4,7,{4}5b/Cf,
{6}2b/A6/B6/E6,8b/E3/A3/B3,1b/B4/E4,1b/B7/B6,{24}8b,7b,{4}6b/Cf,
{8}5/3,5/3,6/2,6/2,1v4[8:1]/7v4[8:1],7/1,{4}Cf,
{32}2x,3,6x,5,2x,3,6x,5,1x,2,6x,5,1x,2,7x,6,3x,4,7x,6,3x,4,8x,7,{4}Cf,
{24}2,3h,5/4,6h,7,8h,1/2,3h,4,5h,6,7h,8,7,6h,5,4h,3/2,{32}1h,8,7,6,5,4,3,2,
{2}5bq7b[2:1]/1q3[2:1],Cf,
{8}3/5,8/1,6/4,5/2,1,7/1h,1/6,5/1h,
2,4/3,8/1,5/6,3-8b[12:1]/7-4[12:1],2/6,7/3,{16}1x/5x,2x/6x,
{8}3x/7x,4h[16:1]/8h[16:1],4h[16:1]/8h[16:1],4/8,2h,3/1,8,7/2,
3h,{16}7x/3x,6x/2x,{8}5x/1x,4h[16:1]/8h[16:1],4h[16:1]/8h[16:1],4/8,3/6,7h,
{32}2b/8,3,4,5,{8}8h,8,8h,1,2/7,6h,3/8,
{32}7b/1h,6,5,4,{8}1,1h,{32}2b/8h,3,4,5,{8}8,8h,2/7b,3h,
{32}2/8bx,7,6,5,{8}B4f,3h,{32}5/3bx,2,1,8,{8}B8f,7h,{32}1/7bx,6,5,4,{8}Cf,
2h[8:1],{16}6,5,{8}6,4/7,2/1,{16}3,8,4,7,5,6,
{8}1-5[12:1],1,6-2[12:1],6,3-5[12:1],3,7-4[12:1],7,
2-5[12:1],2,2/6-1[8:1],6,4b/6,3,7/2>5[8:1],2,
2/8p4[8:1],8,8/3q7[12:1],3,{4}3/1w5[8:1],{24}1b,B1,Cf,B5,,,{12}3/8bx,
2,1,7/4bx,6,5,1/6bx,8,7,5/2bx,{48},,,,,,,,{16}3,
4,3,4,3,5,2,6,1,7,{8}8,{4}1b/6x/E2/B2/E6/B5/Cf,
{24}2x,{48}2,3,,,{24}5x,{48}5,7,,,{24}4x,4,{48},,{16}6,2x,{24}8,1,8,1,8,1,{4}2x/7b/Cf/E7/B6/E3/B3,
{24}3b/6h[4:1],2,1,8,7,5,4,3,2,6b/1h[4:1],7,8,2,3,4,5,6,7,2b/8,3h,4,5/6,7,8h,
1b,8,7h,6,4b/5,3,2h,1,8b,1,2h,3,5b/4,6,7h,8,1/2bx/D3,3bx/D4,4bx/5bx/D5,6bx/D6,7bx/D7,8bx/2bx/D8,7bx/3bx/E8/E3,6bx/4bx/E7/E4,
{4}E6/E5/5w1[8:1],{24}5b<3-1-7-5-3b[1:5]*>8-2-4-6-8[1:5],B5,Cf,E8/B8/B1/B2/E3/B7/B3,
E
