&title=IN THE RAIN
&artist=FELT
&first=0.04
&lv_5=13
&des_5=竹林の傘
&inote_5=(189)
{1},,
{8},,,,,,,,
{8},,,,,,,,
{8},,,,,,,,
{8},,,,,,,{16}5,5,
{4}3b,5,53,5,52,5,52,5,
{4}63,3,74,4h[2:1],
{8},6,6,,3,5,2,6,
{8}8b/1b,,7-4[8:1],,2,,3,3,
{8}6,4,5pp6[4:1],,3,,1,,
{8}52,,3-8[8:1],,7,,5,5,
{8}2,4,1>5[4:1],,6,,8,,
{8}74,,6-3[8:1],,3,,1,1,
{8}4,3,5<1[4:1],,4,,2,,
{8}38,,2-5[8:1],,1,,7,7,
{8}3,8,2,,6,61,2,3,
{8}84,,2-5[8:1],,7,,6,6,
{8}3,5,4qq3[4:1],,6,,8,,
{8}47,,6-1[8:1],1,2,,3,3,
{8}8,2,7,4,65,65,6z2[8:15]/5,65,
{8},,,,,,,,
{8},,,,,,,,
{8}4h[2:3],,,,,,,,
{8},,,,,6,4,{16}5,5,
{8}4b,,,5,6,7/1,,2-5[8:1],
{8},8,,6-1[8:1],,4,,2,
{8}1,3h[4:1],,4h[4:1],,2qq5[8:7],,8,
{8},,6,,6,,6,,
{8}75,,,4,3,25,,6-1[8:1],
{8},4,,2-5[8:1],,7,,,
{8}6,4h[4:1],,8-5[8:1],,3,,1-4[8:1],
{8},7,,5,,4,35,,
{8}2-5[8:1],2,8,,6h[8:1],,4h[8:1],,
{8}7-4[8:1],7,1,,3h[8:1],,5h[8:1],,
{8}2-5[8:1],2,8,,6h[8:1],,4h[8:1],,
{8}7-4[8:1],7,1,,3,5,1,7,
{8}3-8[8:1],3,7,,5h[8:1],,2h[8:1],,
{8}6-1[8:1],6,2,,4h[8:1],,7h[8:1],,
{8}1-5[8:1],1,8,,6,7,8,21,
{8}3,47,6,52,3,84,7,6,
{8}3-8[8:1],3,7,,6,1,5,3,
{8}4-7[8:1],4,1,,2,7,3,5,
{8}4>1[8:1],4,8,,7,8,6,2,
{8}53,5,5,28,2,2,37,64,
{16}5,,3,4,3,,6,5,6,,3,4,3,,6,5,
{16}6,,3,4,2,,6,5,7,,3,4,2,,6,5,
{8}7b/4h[2:1],,,6,6,,2,3,
{8}46,7,83,4,5/6h[8:3],,8,8-3[8:1],
{8}4,4-7[8:1],,2-5[8:1],,6-1[8:1],,4,
{8},3,28,1/7h[8:3],,6,5w1[8:1],,
{8}5b,,,,8<5[8:1]/5>2[8:1],,,,
{8}1>7[2:1],,6,,7p3[4:1],,8h[4:1],,
{8},,2-8[8:1]/7-4[8:1],,,,5V74[4:1],,
{8},,8V25[4:1],,,,6<3[4:1]*q4[4:1],,
{8},,,,5<8[8:1]/2>5[8:1],,,,
{8}1<3[2:1],,4,,3q8[4:1],,2h[4:1],,
{8},,6/1>7[2:1],,,,7pp3[2:1],,
{8},,3>6[2:1],,4,,5pp2[2:1],,
{8},,,,1,,5,4,
{8}6/2>4[8:1],,6<8[8:1],,2-6[8:1],,1qq5[2:1],,
{8}2,,,,4,,6,6,
{8}2/5v4[4:1],,4>6[2:1],,1<6[4:1],,3h[2:1],,
{8},,8h[2:1],,5,,4,73,
{8}6/5-2[4:1],,2-6[4:1],,6<4[2:1],,1>4[4:1],,
{8}6b,,,,7,,3h[1:1]/5,,
{8},,8,,7h[2:1],,,,
{8}2h[8:9],,,,,,,,
{8},,,,,,,,
{8}2h[8:14]/6h[8:15],,,,,,,,
{8},,,,,,,,
{8}3,3,4,52,,7,4,4,
{8}5,63,,,,,,,
{8}6,6,5,47,,82,3,6,
{8}1,5,3,4,2,6,4,5,
{8}63,,1>3[8:1],,7,,6,5,
{8}74,,1-6[8:1],,3,,4,,
{8}52,,8>3[8:1],,7,,5,3,
{8}6h[8:3],5,4,,2h[4:1],5,7h[4:1],4,
{8}3,,8<6[8:1],,2,,3,4,
{8}25,,8-3[8:1],,7,6,5p3[4:3],,
{8}3b,,,,,,,,
{8}4h[4:1]/2h[4:1],,,,83,{16}4,6,4,,7,1,
{8}7b,,{16}2,3,4,5,8,1,2,3,4,5,6,7,
{8}83,4,57,6,5<7[8:1]/2,3,4,,
{8}8/2h[8:3],,6,6-1[8:1],,3,,2-6[8:1],
{8},7,,8V63[4:1],,1,1,2,
{8}2>5[8:1],,,7>2[8:1],,,6>3[8:1],,
{8},1<6[8:1],,,2,,71,,
{8}6<1[8:1]/5,,,3<6[8:1],,,8>3[8:1],,
{8},4h[4:1],,,35,{16}5,4,7,,2h[4:1],,
{8}5h[8:1],,1V37[4:1]/6V48[4:1],,,,,1h[4:1],
{8},8,7V51[4:1]/2V48[4:1],,,,,,
{8}1,8,7V52[4:1]/3V16[4:1],,,,,4/8h[4:1],
{8},6,7-3[8:1],,1,1,25,25,
{24}2,3,4h[4:1],,,,,,,8,7,6h[4:1],,,,,,,1,2,3h[4:1],,,,
{24},,,7,6,5h[4:1],,,,,,,2V86[16:3],3,4h[6:1],,,,2,,,,,,
{24}3,2,1h[4:1],,,,,,,5,6,7h[4:1],,,,,,,4,3,2h[4:1],,,,
{24},,,6,7,8h[4:1],,,,,,,5-8[8:1],4,3h[6:1],,,,5,,,,,,
{8}17,2,3/4-8[8:1],,8,,6,6,
{8}72,3,48,7,61,2,3,4,
{8}5/6bz2[2:3],,,,,,,,
{8}3h[1:1],,,,,,,,
{8}5h[1:2],,,,1,,,,
{8}4,,,,3,,,,
{8}2h[1:2],,,,8,,,,
{8}4,,,,6,,,,
{8}5h[1:2],,,,1,,,,
{8}4,,,,3,,,,
{8}2h[1:2],,,,4,,,,
{8}8,,,,7,,,,
{8}6h[1:1],,,,8,,,,
{8}3h[1:1],,,,4,,,,
{8}5h[1:1],,,,8,,,,
{8}2h[1:1],,,,6,,,,
{8}7h[2:1],,,,1,,,,
{8}2/5,,,,3qq5[4:6]/6pp4[4:6],,,,
{8},,,,,,,,
{8},,,{16}63,72,{8}8b/1b,,,,
{8}3h[8:1]/5h[8:1],,7h[8:1]/4h[8:1],,8<5[8:1]/5>2[8:1],,,,
{8}1>7[2:1],,4<7[4:1],,7p3[4:1],,5h[4:1],,
{8},,4v7[8:1]/3>8[8:1],,,,1V38[4:1],,
{8},,5V37[4:1],,,,4z8[4:1]*qq3[4:1],,
{8},,,,4>1[8:1]/1<6[8:1],,,,
{8}5>7[2:1],,2<7[4:1],,7qq5[4:1],,2h[4:1],,
{8},,3/8<2[2:1],,,,2qq6[2:1],,
{8},,6<3[2:1],,5,,3V58[2:1],,
{8}8q3[2:1],,,,,,8<5[8:1],,
{8}3-5[8:1],,7-3[8:1],,4>6[2:1],,1<6[4:1],,
{8}5,,4pp5[4:1],,1,,3,4,
{8}2/5V74[4:1],,4>6[2:1],,1<6[4:1],,3qq5[2:1],,
{8},,7pp6[2:1],,,,4,4,
{8}5-2[4:1],,2-6[4:1],,6<4[2:1],,1>4[4:1],,
{8}5bpp4[2:1],,,,4,,2h[2:1],,
{8},,8,,7/1,6/2,3>3[4:9]/5,,
{24}3,4,5,{8},,,,,,,
E
