&title=NYA!!!
&artist=FLuoRiTe
&first=0
&des=Mr_HaoZi
&lv_5=13+
&inote_5=(150)
{1},
{8}4,,4,,45,,,4,
{8},4,4,,4h[4:8]/5,,,,
{8}5,,5,,5,,,5,
{8},5,5h[2:1],,,,,,
{8}4,,4,,45,,,5,
{8},5,5,,3,,6,,
{16}45,,,,4,5,4,,45,,,,,,5,,
{8},4,4,,{16}4,5,4,,{8}36,,
{8}2-6[4:1],2,,7-3[4:1],7,,2-5[4:1],2,
{8},7-4[4:1],7,,2pp5[2:1],2,,,
{8}8-3[4:1],8,,2-6[4:1],2,,7-3[4:1],7,
{8},1-6[8:1],1,7-4[8:1],7,2,2,,
{8}2qq5[4:1]/7pp4[4:1],27,,,,,45,36,
{8},27,1-5[8:1]/8-4[8:1],27,18,,36,,
{8}45,,36,4-8[8:1]/5-1[8:1],36,45,,27,
{8},3,7,,{16}1,2,3,,{8}5,,
{8}1>6[8:3],1,,6p1[4:1],6,,8<3[8:3],8,
{8},3q8[4:1],3,,2,2,,,
{8}1>6[8:3]/7,1,,6p1[4:1],6,,8<3[8:3],8,
{8},3q8[4:1],3,,1w5[8:1],,1,,
{8}2,1-5[4:1],,6,7^4[4:1],,3,2^5[4:1],
{8},7,8-4[4:1],,1-5[8:1],,1,,
{8}7,,{16}1,2,3,,{8}5V71[8:3],,,1<5[8:3],
{8},,5-8[4:1],,{16}1,2,3,,{8},,
{8}1q6[8:1]/2^5[8:1],6^1[8:1]/5q2[8:1],,,,,7^4[8:1]/8p3[8:1],4p7[8:1]/3^8[8:1],
{8},,,,1^4[8:1]/8^5[8:1],4-1[8:1]/5-8[8:1],,,
{8},,,2^4[8:1]/7^5[8:1],4v2[8:1]/5v7[8:1],,,,
{8},1^4[8:1]/5,2,1/5^8[8:1],6,1/5,2,,
{8}5V38[8:3],3,,8V63[8:3],6,,3V58[8:3],5,
{8},8^5[8:3],1,2,3,,4,,
{16}1,2,3,,7,6,5,,2,3,4,,8,7,6,,
{16}4,3,2,,7,6,5,,3,2,1,,5b,,,,
{8},,7-5[8:1],8-4[8:1],1-3[8:1],,,,
{8}15,15,,{16}26,37,48,,{8},2-4[8:1],8-6[8:1],
{8}12,8,3-8[8:1],2,35,{16}7,7,,,{8},
{8}2,57,6,38,2,17,1,{16}3,4,
{8}3,,8-4[8:1],2,8-5[8:1],2,8<4[8:1],2,
{16}8,,2,1,{8}2,1,2,1,,,
{8},1b,,,{16}6,5,6,,{8},2^5[8:1],
{8},2,,1/8^6[8:1],2,{16}18,,5,4,{8}3,
{8},,1-5[2:1],28,37,{16}8,7,,,2,3,
{8},2b,,{16}5,4,5,,{8}7-5[8:1],8-4[8:1],17,
{8}8,5,6,7,8,{16}1,2,,,1,2,
{8}1,2,7,4-8[8:1],6,45,5,{16}8,7,
{8}8,6b,3,2,1,{16}8<5[8:1],8,,,{8}8,
{8}2,{16}1-5[8:1],1,,,1,,,,8-5[8:1],8,{8},8,
{8}1,6,2h[4:1],,{16}5,4,5,,{8},1,
{8},8w4[8:1],,8,,{16},3,4,3,{8},
{8}7b,,{16}1,2,3,4,8,7,6,5,1,2,3,4,
{16}1,2,3,4,1,2,3,4,8,7,6,5,1,2,3,4,
{16}8,7,6,5,1,2,3,4,8,7,6,5,1,2,3,4,
{16}8,7,6,5,4,3,2,1,48,5,6,7,8,1,2,3,
{16}8,7,6,5,1,2,3,4,7,6,5,4,1,2,3,4,
{16}8,7,6,5,2,3,4,5,8,7,6,5,3h,2,1,8,
{16}5,6,7,8,4,3,2,1,6,7,8,1,4,3,2,1,
{16}7,6,5,4,1,2,3,4,8,7,6,5,2,3,4,5,
{8},,4,,4,,4h[4:3]/5,,
{8}5,5,,,5,,4/5h[4:3],4,4,
{8}4,4,,4,,4h[4:3]/5,,
{4},,,45,
{8},,3-8[8:1],4,3-7[8:1],4,3^8[8:1],4,
{8}3,{16}6,6,{8}2,38,7,16,{16}4,5,4,,
{8}5,,78,{16},,4,5,4,,2-5[8:1],,,,
{8},8w4[8:1],,8,,{16},,6,5,6,,
{4},4-1[4:1],1V37[2:1],,
{4}7<1[4:3],,,1V73[2:1],
{4},3<6[4:1],,1b,
{4}2-4[8:1],1-5[8:1]/2,8-6[8:1]/1,8b,
{4},6-2[4:1],2^7[4:1],7V52[2:1],,
{4}2V85[2:1],,5>7[2:1],,
{4}7s3[2:1],,3V51[4:1],
{4},{6}3b,6b/8b,7b,2b/4b,{12}6b,
{12},1b/7b,,{4}1>8[4:3],,,
{4}8z4[4:3],,,4V27[2:1],
{4},7<2[4:3],,,
{4}2pp5[4:3],,,5<3[4:3],
{4},,,5b,
{4}3h[4:3],,,6h[4:2],
{4},2h[4:3],,5h[4:3],
{4},1h[4:3],,4h[4:1],
{4},{32}14,25,36,47,58,,,,{8}1-5[8:1],2,1^6[8:1],2,
{16}1,,3,3,3-6[8:1],,2-7[8:1]/8,,{8},,,,
{8}1-6[8:1],2-5[8:1],1,2,,6/8-5[8:1],7/1-4[8:1],28,
{8},,7^4[8:1],2,7-3[8:1],2,7V53[8:1],2,
{16}7,,1-5[8:1],1,1,,{8},7-4[8:1],2-5[8:1],7>4[4:1],2,
{8}7b,,2,{16}1^6[8:1],1,{8}6^3[8:1],1,,,
{8},7b,,,1-5[8:1]/8h[8:1],,{16}8,7,6,,
{8},3qq7[4:1],,3h[4:1],,,,,
{16}4-1[8:1]/8-5[8:1],37,26,,{8},,48,37,26,{16}1-4[8:1],5-8[8:1],
{16},,1,5,{8},2^4[8:1],,{16}21,8,{8}7,,
{8}5-8[8:1]/6,4-1[8:1]/7,,,7-3[8:1],2,7^4[8:1],{16}2,2,
{8},,35,46,57,1,57,1,
{16}5/7-4[8:1],,1,1,{8},,5h[8:1],3h[8:1],7h[8:1],{16}1^4[8:1],1,
{16},,1,,,,7-4[8:1],7,,,7,,,,2-5[8:1],2,
{16},,8^5[8:1],,,,,,1h[8:1],,,,26,37,48,,
{8},8pp4[8:5]/7-5[8:1],,7,,7-4[8:1],,7^2[4:1],
{4},,4,4,
{8}45,,,4,,4,4,,
{4}4h[4:8]/5,,5,5,
{8}5,,,5,,5,5h[2:1],,
{4},,4,4,
{8}45,,,5,,5,5,,
{4}3,6,45,{16}4,5,4,,
{8}45,,,5,,4,4,,
{16}4,5,4,,{8}45,,{8}3^6[4:1],3,6^1[4:1],6,
{8}1^4[4:1],,4<1[8:3],4,,1>6[8:3],1,,
{8}6<4[2:1],6,,,4<1[8:3],4,,1>6[8:3],1,,
{8}6<3[8:3],6,,3^6[4:1],3,6^1[4:1],
{8}6,1^4[4:1],1,,7-4[8:1],7,,1^3[8:1],
{8}1,,8^6[8:1],8,,2-5[8:1],1-6[8:1],2,
{8}1,,3-6[8:1],,3,,38,1-5[8:1]/2-6[8:1],
{8}38,12,,4-2[8:1]/7-1[8:1],,47,,,
{8}3h[16:1],8-5[8:1],3,8>6[1:1],{2},
{1},
{2},2<4[1:1],
{1},
{2},8z4[1:1],
{1},
{2}1,2z6[1:1],
{1},
{2},7^4[4:1],
{2}1-5[4:1],8z4[2:1],
{2}3-7[4:1],6s2[2:1],
{2}1^4[4:1],8V64[2:1],
{2}2-5[4:1],8^5[4:1],
{2}1V37[2:1],8s4[2:1],
{2},1>7[1:3]*-5[2:1],
{1},,,
E
