&title=King Atlantis
&artist=Aoi
&first=0
&des=-ΗΤΓ-ΦωΦ vs. ΜΞЯΣΫΜĖ vs. GleamØfLight
&lv_5=15
&inote_1=
&inote_5=(195)
{8},,,,,,,,,,,,,,,,,,,,,,
{8},,1b-4-2-5-8-6-1[4:30],,,,,,,,1h[4:1],,,,,,,,2h[4:1],,,,,,,,3h[4:1],,,,,,,,4h[4:1],,,,,,,,5h[4:1],,,,,,,,6h[4:1],,,,,,,,7h[4:1],,,,,,,,7h[1:1]/3b-5-1[2:1],,,,,,,,1-3-5-7[2:1]*v4-6-8[2:1],,,,,,,,3h[1:1]/7b-5-1[2:1],,,,,,,,8-6-4-2[2:1]*v5-3-1[2:1],,,,,,,,1/7-4[4:1],1,8,8,1,1,2,2,8/3-6[4:1],8,1,1,8,8,7,7,
{16}3,4,2,6,5,7,2h,4,3,7,5,6,4,5,4,5,4,5,4,5,3,6,4,5,3,6,4,5,{32}4,3,2,1,8,7,6,5,4,3,2,1s5[16:7]/5s1[16:7],,,,,
{16},,,,,,,,,,,,
1h[32:1]/8,,8,1,8,2,8,1,7,2,8,,
{32}1,2,3,4,5,6,7,8,
{16}5z1[2:1]/1s5[2:1],,,,,,,,,,,,,,,,
8h[32:1]/1,,1,8,1,7,1,8,2,7,1,,
{32}8,7,6,5,4,3,2,1,
{16}4z8[16:7]/8z4[16:7],,,,,,,,,,,,,,,,2/8,,1,7,1,8,2,8,,1h[16:1]/7,,8h[16:1],,2h[32:1],7,,1/7^4[8:1],,2,,3/7,,2,,3^8[8:1],5,2,7,6,5,4,,7b,,1,1,8,2h[16:1],,,18,,7h[16:1],,2,1,7,,1b/8b,,2,1,2,,2,3,2,,2,8,2,,2,4,2b,,7,8,7,,7,6,7,,7,1,7,,7,5,7b,,2,8,2,,2,4,2,,3,1,3,,3,5,3b,,7,1,7,,7,5,7,,6,8,6,,6,4,6b,,3,5,3,6,4,7,5h[8:1],,6,4,5,3,4,2,4,,6,4,6,3,5,2,4h[8:1],,3,5,4,6,5,7,5,,1,3,2,4,3,5,4,6,5,7,8,6,1,7,2,,1bv4[3:1]/8b-5[3:1],,,,,,,,,,,,,,
1h[16:3]/6h[16:3],,,,3,4,2,5,3,4,2-7[8:1],5,3,4,2,,6hb[8:1],,,,6,5,7,4,6,5,7-2[8:1],4,6,5,7,,3hb[8:1],,,,2,1,3,8,2,1,3^6[8:1],8,2,1,3,,7hb[8:1],,,,7,8,6,1,7,8,6^3[8:1],1,7,8,6,,2hb[8:1],,,,5,4,5,3,4,3,5,4,6,3,4,2,4hb[8:1],,
,,4,5,4,6,5,6,4,5,3,6,5,7,5hb[8:1],,,,6,4,8,2,7,4,5,2,6,3,8,1,7bh[8:1],,,,26,,3,4,3,,16,,2^5[8:1]/5^8[8:1],,,,2b/5b,,,,,,,,2,4,3,5,1,4,3,,2/5,,25,,7,5,6,4,8,5,6,4,8,5,6,,4/7,,47,,2,4,3,5,1,4,3,5,1,4,3,,5h[8:1]/2-5-7[4:1],,,,7-1-3-5-7b[8:2],,,,,,,,,,,,2b/8b,,6,5,6,,1b/7b,,3,4,3,,1b/8b,,6,5,7,,8b/2b,,3,4,2,,1bv4[8:1]/7bv4[8:1],,,,1b/7b,,,,35,,3,,36,,3,,37,,{32}3x/7x,2x/6x,1x/5x,8x/4hx[8:1],
{16},,7,3,8,4,1,5,2,6,3,7,4,8,5,1,4,8,3,7,1,2,3,4,1,2,3,4,5,6,7,8,5,6,7,8,1,2,3,4,1,2,3,4,1,8,7,6,5,4,3,2,8b-4[8:1]/1,,,,2b-5[8:1]/8,,,,2/7b-4[8:1],,,,1bv4[8:1]*^3[8:1]/7,,,,1b,,,,5,6,7,8,5,6,7,8,1,2,3,4,
8,7,6,5,8,7,6,5,4,3,2,1,4,3,2,1,8,7,6,5,8,7,6,5,8,1,2,3,4,5,6,7,1b-5[8:1]/8,,,,7b-4[8:1]/1,,,,7/2b-5[8:1],,,,8bv5[8:1]*^6[8:1]/2,,,,8b,,,,4,3,2,1,4,3,2,1,8q4[12:1]/4q8[12:1],73,26,51,4/8,{16},,,3,5,4,5,3,6,5,6,4,7,6,7,5,7,6,7,4,6,5,6,3,5,4,5,2,4,3,4,1b-5[8:1],,,,7-4[8:1]/1b,,,,7b/3-8[8:1],,,,3b/6-1[8:1],,,,1/6b,,,,2,4,3,5,4h[8:1],,
{24}5,4,5,4,5,4,5,4,,{16}3b/6b,,2,1,3,8,2h[8:1],,7,8,6,1,7h[8:1],,3^8[8:1],4,2,6,3,,6^1[8:1],5,7,3,6,4h[12:1],,,
{32}48,37,26,15,,,,,
{16}8,7,8,6,1,8,1,7,2,1,2,8,3,2,3,1,4hb[8:1],,,,45,,45,,56,,67,,7/8,,18,,1bq3^5q7^1[1:3]/8hb[4:1],,,,,,,,,,,,,,,,3h[4:1],,,,,,,,,,,,,,,,4h[4:1],,,,,,,,,,,,,,,,5h[4:1],,,,,,,,Ch[8:1],,,,,,,,1b/7b,,3,5,3,,1b/7qq5[8:1],,6b,,2,,1,,8^3[8:1],,,,
6,,7v4[8:1],,,,3b,,,,1b,,2/8-4[8:1],,7,,2^5[8:1]/8,,3,,27,,8b,,2,,2>6[8:1],,,,
{16}E7/2ex,E8,E1,E2,E3,E4,E5,E6,E7/3,2,1,8,7,6,5,4,3b/7b-3[8:1],,,,1-4[8:1]/7,,,,5-8[8:1]/1,,,,5/2q6[8:1],,,,7^5[8:1]/2^7[8:1],,,,7pp3[8:3]/2,,,,4h[8:1],,,,5h[8:1],,,,
2b^7[8:1]/6b,,,,2/6^3[8:1],,,,1-5[8:1]/6,,,,8-4[8:1]/1,,,,4/8-5[8:1]*-6[8:1],,,,8-2[8:1]*-3[8:1],,,,8w4b[8:1],,,,8b,,,,
#2bh[8:1],,,,7,8,6,1,5h[8:1],,4h[8:1],,,,3h[8:1],,2,1,3,8,4,7,5,6,4h[8:1],,7h[8:1],,1^4[8:1],,,,8h[16:2]/1,,,,8,4,8,4,7,3,26,,15,,4<8q2[4:3]/8>4q6[4:3],,,,,,,,,,,,,,,,,,,,,,
{24}1h[12:1],,7,,7,,2h[12:1],,6,,6,,1h[12:1],,5,,5,,8h[12:1],,4,,4,,1^3[8:1],,5,,5,,1-4[8:1],,6,,6,,1-5[8:1],,7,,7,,1,,,,,,
8h[12:1],,2,,2,,7h[12:1],,3,,3,,8h[12:1],,4,,4,,1h[12:1],,5,,5,,8^6[8:1],,4,,4,,8-5[8:1],,3,,3,,8-4[8:1],,2,,2,,8,,,,,,
{24}1h[8:1],,8,,8,,3h[8:1],,1,,1,,5h[8:1],,7,,7,,3h[8:1],,8,,8,,1^3[8:1],,6,,6,,1-4[8:1],,8,,8,,1-5[8:1],,6,,6,,1,,,,,,8h[8:1],,1,,1,,6h[8:1],,8,,8,,4h[8:1],,2,,2,,6h[8:1],,1,,1,,8,,2,,1,,1,,7,,3,,1^6[12:1],,1p5[12:1],,1-4[12:1],,1^3[12:1],,,,,,,,,,,,
{16}7b/Cf,,,3b/Cf,,,1b/Cf,,5exb/Cf,,,1b/Cf,,,
{24}1s5[12:1]/8z4[12:1],,18,,1b/8b,,
{24},,,,,,,,,1/8,,,,,,2,,4,,3,,4v3[8:1],,2,,5,,4,,5,,5,,
#1:56(195){24}2h[16:1],,,,,,1,,5,,3,,4v2[8:1],,2,,5,,4,,6,,6,,
(185){24}3h[12:1],,,,,,1,,4,,3,,4v1[8:1],,2,,6,,4,,7,,7,,
(175){24}2h[12:1],,,8h[12:1],,,2,,4,,3,,4-8[8:1],,2,,5,,4,,7,,7,,
(165){24}1h[12:1],,,7h[12:1],,,2,,5,,3,,4v3[8:1],,2,,6,,4>4[4:3]*<4[4:3],,7,,7,,
(155)8/4b,,,,,,,,,,,,,,,,,,,,,,,,
{16}3h[4:1],,1,,4h[4:1],,1,,3h[4:1],,8,,1b,1b,1b,,
27,,8,1,8,1,8,,2/7h[16:1],,1,8,1,8,1,,36,,2,2,5,,4,4,3,,26,,4b/5b,4b/5b,4b/5b,,2/7h[16:1],,1pp5[3:1],,8h[16:1],,7h[16:1],,6h[16:1],,5h[16:1],,6h[16:1],,7h[16:1],,8b-4[8:1],,
,,8/2-5[8:1],,1,,2/6,,,B6/E6/E7,,,8b/B3/E3/E4,,,1/8,,,2b^7[8:1]/6,,5,5,2b^5[8:1],,6,6,2b-8[12:1]*-6[12:1],,5,,2b,,,,5,5,7,7,1-5-3[16:3],,,3-1-7[16:3],,,7-4-6b[16:3],,Chf[2:1],,,,,,,,B1/B8/E8/E1/E2,,,,1-4[8:1]*-5[8:1],,,,1-3-7[4:1],,,,1-5[8:1]/7h[8:1],,,,1-3[8:1],,,,1-7-5[8:1]/6,,,,1-5[8:1]*-3[8:1],,,,1-7[8:1],,,,4-2-6[4:1]/1,,3,,4/6-2[8:1],,,,7-5-3[8:1],,8,,7-3[8:1]*-1[8:1],,,,7,,,,2-4-1[4:1],,3,,1-5[8:1]/2,,,,8^5[8:1]*-3[8:1],,7,,8-4[8:1],,,,1-5[8:1]/8,,2,,1/8w4[8:1],,7,,8b,,,,1pp2[6:1]/6,,2,,1/6h[8:1],,,,8,8,1,8,8,2,2,8,3,8,8,4,4,7,3,3,8q4[8:1]*p4[8:1],2,2,8,8,,,,26,,3,4,2-6[8:1],,1,8,2^7[8:1]*^5[8:1],,,,2,,,,1,1,6,2,2,7,3,3,8b,,,,1,4,3,4,2,5,4,5,1,6,5,6,2,5,4,5,1,4,3,4,2,2,1,2,5,1,8,1,5,8,7,8,5,1,8,1,4,2,1,2,6,1,8,1,6,1,8,1,5,1,8,1,3,1,8,2,7,1,8,,
{32}E1,E2,E3,E4,E5,E6,E7,E8,
{16}1ex,5,1,5,2,6,2,6,
{32}2b,3,4,5,7,6,5,4,
2,,7,,2,,7,,4,,7,,4,,7,,3,,6,,3,,6,,2b,3,4,5,7b,6,5,4,1,,4,,1,,3,,1,,2,,1,,8,,1bx,,7,,1bx,,6,,1bx,2,3,4,5,6,7,8,1bx,2,3,4,5,6,7,8,1bx/5,4,3,2,1,8,7,6,5/1bx,2,3,4,5/8bx,7,6,5,4/2bx,3,4,5/7bx,6,5,4,,
{8}1b-5[8:1],2,1/8-4[8:1],7,2^5[8:1]/8,3,2/6^1[8:1],7,4-8[8:1]/6,3,5-1[8:1]/4,6,5/2-4[12:1],3,2/6-8[16:1],7,
{16}6/4,3,4,7,7h[32:1],4,4h[32:1],5,
{24}3b,4,3,6,5,6,4,5,3h[32:1],4hx[32:1],2,5,4,6,3,6hx[32:1],3h,,4b/5b,,3,6,4,,3b/6b,,5,4,5,,3hb[8:1]/6hb[8:1],,,
,,,
{8}8b-4[8:1]/2,7,8/1-5[8:1],2,7^4[8:1]/1,6,7/3^8[8:1],2,5-1[8:1]/3,6,4-8[8:1]/5,3,4/7-5[12:1],6,7/3-1[16:1],2,
{16}3/5,6,5,2,2h[32:1],5,5h[32:1],4,
{24}6b,5,6,3,4,3,5,4,6h[32:1],5hx[32:1],7,4,5,3,6,3hx[32:1],6h,,5b/4b,,6,3,5,,6b/3b,,4,5,4,,6hb[8:1]/3hb[8:1],,,
{16},,1-3-8[4:1]/8,,7,,8-4[8:1]/1,,4-6[8:1],,7,,7,,8-6-1[4:1],,3,,1-5[8:1]/8,,5-3[8:1],,2,,2,,1-3-8[4:1],,7,,8-4[8:1]/1,,4-6[8:1],,7,,7,,8-6-1[4:1],,3,,1-5[8:1]/8,,5-3[12:1],,2,,2,,1h[24:11],,
{24}4,3,2,,8,7,6,5,4,38,7,6,5,4,3,2,1,8,7,6,5,4h[4:1]/8,,,
{16}7,,6,,5q1[8:1],,1,,2,,3,,4,,5p1[8:1]/1,,8,,7,,6,,5/1h[4:1],,6v8[8:1],,7,,6,,
{24}2b,3,4h[8:1],,,8bx,1,2,,Cf,,,7b,6,5h[8:1],,,1bx,8,7,,Cf,,,
{16}1,8,1,8,2,7,3,6,4,5,4,5,3,6,2,7,
{16}
(155)Cf/1,,3,4,3,,2^7[8:1]/5,,3,4,2,E7,E6,E5,E4,,
(150)8,,6,5,6,,7^2[8:1]/4,,6,5,7,E3,E4,E5,E6,,
(145)18,,2,5,3,6,4,7,5-3[12:1],8,4,7,5-1[8:1],8,,,
(140)57,,7,4,6,3,5,2,4-6[12:1],1,5,2,4-2-8[6:1],1,,,
(135)4,,7h[8:1],,3,4,2,5,4,7,5,6,4,5,3,7,
(130)1,8,1,7,2h[24:1],7,3,6,3h[24:1],5,4,5,2h[24:1],4,3,5,
(125)4h[24:1],5,4,4,5h[24:1],4,5,3,4h[24:1],2,7,5,6h[24:1],4,5,4,
(120)B7/B8,3,5,5,B2/B1,6,3,3,B7,4,6h[24:1],,B2,5,3h[24:1],,
(235)1bv6-8-5-7-2[4:28]*v4-2-5-3-8[4:28],
{8},,,,,,,,,,,,,,,,,,,,,,,,,,,,,,,,,,,,,,,,,,,,,,,,,,,,,,,,,,,,,,,
{16},C,,B7/B8,,,,B3,,,,B5/B6,,,,E3/B2/B3,,E1,,E5,,,,E3,,,,E7,,,,B1/B8,,C,,B5/E6,,,,C,,,,B2/E2,,,,C,,,,B7/B8/E8,,B4/E4/B3,,,,E1,E2,E3,E4,E5,E6,E7,E8,E1,,C,,,,E3/E7,,,,B1/B8/E1,,,,E5/B4/B5,,,,C,,E6/B5,,E2/B2,,B7/E8,,,,B4/E4/B3,,,,E1,,C,,,,B4/B5/E5,,,,Ch[8:1]/B2/B3,,,,E7,,E3,E4,E5,E6,E7,E8,E1,E2,E3,E4,E5,E6,E7,E8,E1,2hx[16:1],,,
2-5[8:1]/6,,,,2/7-4[8:1],,,,7/3-8[8:1],,,,3/8-6-4[4:1],,,,2,,2,,1
,,8p4[4:1],,1,,2,,3,,,,
7-4[8:1]/3,,,,7/2-5[8:1],,,,2/6-1[8:1],,,,6/1-3-5[4:1],,,,7,,7,,8
,,1q5[4:1],,8,,7,,6,,
8,,1-5[8:1]*-3[8:1],,,,1qq6[2:1],,,,14,,,,4h[4:1],,,,,,
3h[8:1],,7h[8:1],,2h[8:1],,6h[8:1],,1v3b[8:1],,5v7b[8:1],,1,,5,,,,2h[4:1],,,,5q1[8:1],,,,1,,,,2,,3,,4,,5^2b[8:1]/1,,7h[8:1]
,,5,,,,
8b/1b,,1,,8,,2h[4:1],,8,,,,3,,7,,8bh[4:1]/2,,,3,,,3,,2/7,,8,,2h[8:1],,,,1b/8b,,8,,1,,7h[4:1],,1,,,,1/6,,7,,1bh[4:1],,7,,,,6,,8/2,,1,7,2,8,1,7,2b,
6,2,6,2,6,2,6,2,6,2,6,2,6,2,6,3,7,3,7,3,7,3,7,3,7,3,7,3,7,3,7,3,5,3,5,3,5,3,5,3,5,4,6,4,6,4,6,
{16}3b,6,3,6,3,6,3,,
{24}4,5,4,5,4,5,4h,5h,4h,5h,4h,5h,4w8[15.66#128:1],,,
{16},,7,,1,,6,,2,,5,,3,,4w8b[21.36#100:1],,3,,5,,2,,6,,1,,7,,8,,
5,6,7,3,2,1,7ex,6,5,2,3,4,6,5,4-8[66.99#32:1]*-8[66.99#32:1],2,1,8,7,6,5,4,3,2,1,8,,,4b,,,,
2-8[8:1]/6ex,,6,,7/2-4[8:1],,7,,2/7,6,5,,5,,5/3,6,7-1[8:1],,2,,2/7-5[8:1],3,4,,7-3[8:1]/4,,4,3,2/7,,,,1h[8:1],,,,
2/7-5[8:1],,2,,7/2,3,4,,4,,4/6,3,2-8[8:1],,7,,7/2-4[8:1],6,5,,2-6[8:1]/5,,5,6,7/2,,,,8h[8:1],,,,
3-5[8:1]/7,,7,,6/3-1[8:1],,6,,3/6,7,8,,8,,8/2,7,6-4[8:1],,3,,3/6-8[8:1],2,1,,6-2[8:1]/1,,1,2,3/6,,,,4h[8:1],,,,
3/6-8[8:1],,3,,6/3,2,1,,1,,1/7,2,3-5[8:1],,6,,6/3-1[8:1],7,8,,3-7[8:1]/8,,8,7,6/3,,,,
1x,8,7,6,5,8,1,2,3,45,6,7
,8,,,,8b^5[8:1],1,2,,8b^3[8:1],2,3,,8b-4[8:1],3,4,,8b,4,5,
,1,2,3,4,1,8,7,6,51,4,
3,2,15,,,1b^4[8:1],8,7,,1b^6[8:1],7,6,,1bq5[8:1],6,5,,1b[8:1],,,7b-3[8:1]
,,,,7/8b-4[8:1],,,,8/1b-5[8:1],,,,1b/2,,,,,,
12,,18,,78,,6,5,4h[8:1],,1,2,3h[8:1]/6b,,5bs1[6:1],,,,2b-6b[8:1],,,,2b,,1h[8:1],,,,48,37,26,1h[16:2]/5,4,3,2,1,
{24}84,7,6,5,48,7,6,5,4,3,2,1,
{16}48,,37,,26,,1/5,,1-5[8:1]/5,,1,,1/7^4[8:1],,7,,7/2q6[8:1],,2,,2/8p4[8:1],,8,,48,3,2,1,85,4ex,3,2,1/4p8[8:1],,4,,4/6q2[8:1],,6,,6/3^8[8:1],,3,,3/5q1[8:1],,5,,
2,,2h[16:4],,8,,8h[4:1],,2,3,4,5,6,1,8,7,6/2h[16:7],5,4,3,,
1,8,7h[8:1],3,4,5h[8:1],,8,7,6h[8:1],,3,2,1h[8:1],,8,,37,,26,,15,,68,,35,,8b/2,,2b-5[8:1]/4,,,,2/4b-7[8:1],,,,2b/4,,,,48,37,26,15,8,7,6,5,48,37,26,1-5[8:1]/5-1[8:1],,,,1b/5b,Cf,,,
,37,,
4v1[8:1]/8-5[8:1],,,,48,,,,2h[8:1]/6h[8:1],,,,1-5[8:1]/8,27,36,,1b/8b,,
6,4,6,4,7,,18,,
{24},,,3b,4,3,4,3h[24:1],,6b,5,6,5,6h[24:1],,2b,4,2,4,2h[24:1],,7b,5,7,5,7h[24:1],,
{16}6b,4,8,3,5b,1,6,4,
{24}8bex,7,6,5,4,3,2,1,8,7,6,5,4w8[16:8]/3w7[16:8],,,,,,,,,,,,,,,,,,,,,,,,
{16}28,,3h[16:1],,5,4,6,,57,,3,4,2,6,5,,4z8[2:1]/8z4[2:1],,,,,,,,,,,,,,,,71,,6h[16:1],,4,5,3,,42,,6,5,7,3,4,,5s1[2:1]/1s5[2:1],,,,,,,,,,,,,,,,
27,,3,5,3,6,4,6,3,5,4,6,5,7,4,,36,,45,,18,,2v7[8:1]/6v3[8:1],,,,26,,,,,,
4b/6b,,46,,37,,28,,1p5[8:1]*q5[8:1],,,,1b,,,,
2h[8:1]/6,,,,2h[8:1]/8,,8-6[8:1],,3h[8:1],,8,,4h[8:1],,,,
2b/6h[8:1],,,,6h[8:1]/4,,4^1[8:1],,7h[8:1],,4,,8h[8:1],,,,
4b/8h[8:1],,,,6/8h[8:1],,6-4[8:1],,7h[8:1],,6,,8h[8:1],,,,
4h[8:1]/8b,,,,1/4h[8:1],,1v6[8:1],,4h[8:1],,1,,5h[8:1],,,,
18,,7,8,7,,{24}8h[8:1]/2b,3,4,,,,3b/1h[8:1],4,5,,,,8h[8:1]/4b,5,6,
{16},,2,1,2,,{24}1h[8:1]/7b,6,5,,,,6b/8h[8:1],5,4,,,,1h[8:1]/5b,4,3,
{16},,2,5,3,,{24}4/5b,6,7,8,,,4b/5,3,2,1,,,8-5-7-4[8:5]*-3-1-4[8:5],17,26,35,4,,
{16},,,,,,,,,,,,,,8b,8,8,8,8,,1b,1,1,1,1,,2b/4b,35,46,57,
{24}6b,7,8,1,2,3,
{32}4b/7,8,1,2,3,4,5,6,
{64}2b/7,,1,,8,,7,,6,,5,,4,,3,,2b,D2,1,D1,8,D8,7,D7,6,D6,5,D5,4,D4,3,D3,
{1}Cf/2b-4-1-6-8-5-2b[1:6],1h[4:1]
,8h[4:1],7h[4:1],6h[4:1],7h[4:1],8h[4:1],8h[4:1]/1h[4:1],{8}1bv4[4:1]/8b-5[4:1],1b/8b,
