&title=一瞬のセツナ
&artist=A-One
&first=1.369999
&des=棒符「ビジーロッド」
&lv_5=13+
&inote_5=(162)
{1},1-4[8:12]*-6[8:12],,
8-5[8:12]*-3[8:12],,
{16}1s5[8:12]*z5[8:12],,,,,,,,,,,,,,,,,,,,,,,,,,,,,,,,
{16}Ch[8:6],,,,,,,,,,,,B1/B8/B4/B5,,,,
{4}6x/2hx[4:7],6,5,5,
{8}4,,4,,5,,5,,
{4}6<2V86[4:6]/2,2,3,3,
{8}4,,4,,3,,3,,
{8}5bx/2p4b[8:4],,5,,6,,6,,
{8}7q5b[8:4]/4bx,,4,,3,,3,,
{8}1bxs5b[2:1]/5bxz1[2:1],,,,,,,,
{16}Ch[16:12]/B7h[16:8]/B6h[16:10]/B2h[16:9]/B3h[16:11],,,,,,,,,,,,,,,,
{16}7x/5x,,6/4,,3/5,,2,2h[16:3],,,1,2,,7,8,6,
{16}1,8,1,,72,,3,4,3,,25,,3,,74,,
{16}6,,6h[8:1],,5,6,,,2,1,2,,83,,7,,
{4}2h[8:1]/6h[8:1],8h[8:1]/4h[8:1],{16}2/6,,7,1,6,2,5b,,
{16}46,,3,,3h[8:1],,4,2,,,78,,6,,45,,
{16}3,,12,,3,,5,4,6,,73,,3,,25,,
{16}6,,6h[8:1],,5,6,,3,4,2,4,3,4,,25,,
{16}74,,74,,6,5,,74,,,4,5,6,7,8,1,
{16}2/6-4[8:1],,,,2,,,,2h[16:3],,,4h[16:3],,,5,,
{8}5-3-6-2[2:1],,6,,7,,8x,,
{16}7/3-5[8:1],,,,7,,,,7h[16:3],,,5h[16:3],,,4,,4-1-3b[4:1],,,,3pp4b[4:1],,,,,,,,1,,,,
{16}7xh[4:1]/3x,,,,B6/E6/B5,,,,2h[16:3],,,3h[16:3],,,4,,
{8}4qq1[2:1],,8,,7,,6,,
{8}5pp5b[4:1],,5xqq4b[4:1],,1hx[4:1],,,,
{16}2h[8:1]/4h[8:1],,,,7h[8:1]/5h[8:1],,,,1/8,,27,,3,,3,,
{16}4^7[8:1]/2,,,,2,,,,2-5[8:1],,,1,2,,7,,
{16}7V15b[4:1],,,,4bxh[4:1],,,,,,,,6,,6,,
{16}5^2[8:1]/7,,,,7,,,,7-4[8:1],,,8,7,,2,,
{16}2V84b[4:1],,,,5bxh[4:1],,,,,,,,3-1[8:1]/7,,,,
{8}8,,6^3[8:1],,3,2,2h[4:1],,
{8}1qq5[8:3],,3,,4,3,6-8[8:1]/2,,
{8}1,,3^6[8:1],,6,7,7h[4:1],,
{4}8pp4[8:3],5,6,A7/D8/A8/D1/A1/D2/A2,
{8}3>6q3[4:6],,6,,5,,4,,
{8}4,,5,,6,,{16}6,,4,5,
{8}6v7^2[4:5]/3,,3,,4,,5,,
{8}5,,4,,3,,{16}3,,5,4,
{8}3-5-2-6[4:5]/6,,7,,8,,1,,
{8}1,,8,,7,,{16}7,,1,8,
{8}7-1-6[2:1]/2,,2,,3,,3,,
{16}1,,1,,7,,7,,3,6,4,5,1b,,,,
{16}4/5^2[8:1],,,,5/6,,7,,8p4[8:1]/7,,,1,8,,2,,
{16}3V51[4:1],,,5,3,,8,,8-5[8:1]*-3[8:1],,,,8b,,,,
{16}6-1[8:1]/2,,,5,,,4,,3-6[8:1]/7,,,2,,,1,,
{16}4/8-4b[8:1],,,,81,,,,2z6[4:1],7,3,6,2b,,,,
{16}1x^4b[8:1],,,8,1,,7,,5x^8b[8:1],,,4,5,,3,,
{16}2h[8:1]/8xh[8:1],,,4xh[8:1]/6h[8:1],,,7/3,,7^4[8:1]/3^8[8:1],,,,7b/3b,,,,
{16}2h[16:3],,,4h[16:3],,,3,,7h[16:3],,,5h[16:3],,,6,,
{8}3-8[8:1]/7-4[8:1],,73,,{16}8x,1,2,3,4b/8b,,,,
{16}5/4^7[8:1],,,,4/3,,2,,1q5[8:1]/2,,,8,1,,7,,
{16}6V48[4:1],,,4,6,,1,,1-4[8:1]*-6[8:1],,,,1b,,,,
{16}3-8[8:1]/7,,,4,,,5,,6-3[8:1]/2,,,7,,,8,,
{16}5/1-5b[8:1],,,,81,,,,7s3[4:1],2,6,3,7b,,,,
{16}8x^5b[8:1],,,1,8,,2,,4x^1b[8:1],,,5,4,,6,,
{16}7h[8:1]/1xh[8:1],,,5xh[8:1]/3h[8:1],,,2/6,,2^5[8:1]/6^1[8:1],,,,2b/6b,,,,
{16}7h[16:3],,,5h[16:3],,,6,,2h[16:3],,,4h[16:3],,,3,,
{8}6-1[8:1]/2-5[8:1],,26,,{16}1x,8,7,6,5b/1b,,,,
{24},,B1,B2,,,,,,,,,,,,,,,,,,B6,B5,,
{1},
{16}2x/4x,,3/5,,6/4,,7,7h[16:3],,,8,7,,2,1,3,
{16}8,1,8,,72,,6,5,6,,74,,6,,25,,
{16}3,,3h[8:1],,4,3,,,7,8,7,,16,,2,,
{4}7h[8:1]/3h[8:1],1h[8:1]/5h[8:1],{16}7x/3x,,2,8,3,7,4b,,
{16}53,,6,,6h[8:1],,5,7,,,21,,3,,45,,
{16}6,,87,,6,,4,5,3,,26,,6,,74,,
{16}3,,3h[8:1],,4,3,,6,5,7,5,6,5,,74,,
{16}25,,25,,3,4,,25,,,5,4,3-7[8:1],2,1,8,
{1}7b/3b`Cf,,,
E
