&title=ALTER EGO
&artist=Yuta Imai vs Qlarabelle
&first=0
&des=Zephyr vs Octavianus
&clock_count=4
&lv_5=14+
&inote_5=(195){1},{4},,,{16}3,4,3,4,
{8}2h[4:3],,4,,5,,6,,3/7,,6,,2x/5h[8:3],{24}E3,B3,B4,
{16}B5,,,,7xv4<6[2:1],,,,2,,2,,3,,3,,4,,,,
{8}6/4,,3,,7x/4h[8:3],{24}E7,B6,B5,
{16}B4,,,,2xv5>3[2:1],,,,,,,,,,7,,6,,5,,
(193){16}3,
(191){16},
(189){16},
(187){16},
(185){16}2,
(183){16},
(181){16},
(179){16},
(177){16}1,
(175){16},
(173){16},
(171){16},
(169){16}8h[8:1],
(167){16},
(165){16}1,
(163){16}8,
(161){16}2,
(159){16},
(157){16}3,
(155){16},
(153){16}4,
(151){16},
(149){16}5,
(147){16},
(145){16}6,
(143){16},
(141){16}7,
(139){16},
(137){16}1/8,
(135){16},
(133){16}2,
(131){16},
(129){16}3,
(127){16},
(125){16}4,
(123){16},
(121){16}3,
(119){16},
(117){16}4,
(115){16},
(113){16}5h[64:25],
(111){16},
(109){16},
(107){16},
(105){16}4h[8:1],
(103){16},
(101){16},
(99){16},
(97.5){4}2>3-5s1[4:5]/7<6-4z8b[4:5],,,,,,
(195.04){16},,,,,,,,Chf[4:1],,,,,,,,
(195)
{32}1b/8b,2x/7x,3x/6x,4xh[32:13]/5xh[32:13],,,,,{4},,,
{32}8b/7b,1x/6x,2x/5x,3xh[32:13]/4xh[32:13],,,,,{4},,,
{32}1b/2b,8x/3x,7x/4x,6xh[32:13]/5xh[32:13],,,,,{4},,,
{32}1b/8b,2x/7x,3x/6x,4xh[32:13]/5xh[32:21],,,,,{4},
{32},3x,2x,1xh[32:5],,,,,{4},
{32}1b/5b,2x/6x,3x/7x,4xh[32:13]/8xh[32:13],,,,,,,,,,,,,{2},
{32}8b/4b,7x/3x,6x/2x,5xh[32:13]/1xh[32:13],,,,,,,,,,,,,{2},
{32}7b/6b,8x/5x,1x/4x,2xh[32:13]/3xh[32:13],,,,,{4},,,
{32}2b/3b,1x/4x,8x/5x,7xh[32:13]/6xh[32:13],,,,,{4},,,
{16}5,6,,6,4,,4,,3,5,,5,2,,2,,5,4,,4,3,,3,4,,4,5,,5/6,,,,
{16}7,8,7,,7,8,6,1,,2/5,2/5,,3,4,3,4,3,,6,5,6,5,6,,8,7,1,6,2,5,3,4,
{16}4,3,,3,5,,5,,6,4,,4,7,,7,,4,5,,5,6,,6,5,,5,4,,4/3-8[8:1],,,,
{16}3b,,,B5/E5,,,2-5[8:1],,,2b,,,B7/E8,,5x/6x,,{1}4xV26[2:1]/7xV15[2:1],
{16}B4/7x,,,,B3/7,,7,,B2,,7,,B1/7,,,,A4/7,,7,,A3,,7,,7/A2,,,,A1/6,,,,
{16}B5/2x,,,,B6/2,,2,,B7,,2,,B8/2,,,,A5/2,,2,,A6,,2,,2/A7,,,,Cf,,,,
{16}3/4,,3,,5/6,,6,,3/4,,2,,5/6,,7,,3/4,,1,,5/6,,8,,2/4,,1,,7/5,,8,,
{16}1/7,,2/6,,
{16}3,3,4,2,
6,6,5,7,
{32}2,3,4,5,6,7,8,1,{4}2bx/Ch[4:1],,1-5b[8:1],1b,
{16}2,2h[8:1],,4,4h[8:1],,5,5h[8:1],,7,7h[8:1],,1,1,8,8,
{16}3,3h[8:1],,4,4h[8:1],,5,5h[8:1],,6,6h[8:1],,4,,3/7,,
{4}2>5[4:1]/8,5<8[4:1],8>3[4:1],3<6[4:1],
{4}6V42[4:1],2q6[4:1],6<1[4:1],1,
{16}5,,6,,1/7,,2,,3/5,,4,,5/6,,7,,
{16}1/8,,2,,3/7,,6,,4/5,,2/7,,{32}2x,3x,4x,5x,6x,7x,8x,1x,
{16}6b/2b-6[8:1],,7,,2-4[8:1],,5,,2x-6[8:1],,8,,2,,5,,
{16}8x-4[8:1],,3,,8-6[8:1],,5,,8x-4[8:1],,2,,8,,5,,
{16}5x/6x,,5x/6x,,4x/7x,,4x/7x,,3x/8x,,3x/8x,,1x/2x,,1x/2x,,
{16}2,1,2,1,3,8,3,8,4,7,4,7,5-1b[8:1],6,5,6,
{16}5b,,8,,8-6-1-5[8:3],2,,2,8,,3,,3,,4x,,
{16}6b,,1,,1-3-8-4[8:3],7,,7,1,,6,,6,,5x,,
{16}3-6[8:1],,6,,3,7,,7,8,,8,,1/7,,2/6,,
{16}3/5h[4:3],,E5,,E6,,E7,,E8,,C,,2-6[8:1],,1,,
{16}2b/8,8,,7,7,,4,6,5,,3/7,,3h[8:1]/7-3[8:1],,,,
{16}7b/1,1,,2,2,,5,3,4,,6/2,,6h[8:1]/2h[8:1],,,,
{16}3,4,3,4,2bh[8:1],,6,5,6,5,7bh[8:1],,1,8,1,8,
{16}2bh[4:3]/7b,,,,E5,,,,E6,,,,E7,,,,
{8}8b/A3/E3f/D3/B3,,,,3b/B7/E7f/A7/D7,,,,6b/E2f/B2/A2/D2,,,,8b-4b[8:1],,Cf,,
{16}3x,5,3,5,2x,5,3,5,1x,4,3,4,8x,4,3,4,7x,5,3,5,6x,5,3,5,5x,5,,,4/6,,4/6,,
{16}6x,4,6,4,7x,3,6,3,8x,4,6,4,1x,3,6,3,2x,4,6,4,1xV35[4:1]*V75[4:1],,,,,,,,,,,,
{16}4bv1[8:1],,,6,6/4,,7,,7b<4[8:1],,,2,2/7,,3,,
{16}2bv5[8:1],,,8,8/2,,7,,7b-3b[8:1],,4b,,7b,,2b,,
{16}1b>4[8:1],,,4,4/1,,6,,8b<5[8:1],,,5,5/8,,3,,
{16}1h[1:1],,,4h[8:1],,,4,,5,,5,,6,,6,,
{8}7h[2:8],,,,,,,,,,,,E5,B4,B3,B2,,,,,,,,,,,,,,,,,
{16}1>6[8:3],,,,6,,6<6[2:2],,,,,,C,,,,,,,,,,,,,,,,,,,,
{16}7<2[8:3],,,,2,,2<2[1:1],,,,,,C,,,,,,,,,,,,,,,,,,,,
{16}3h[4:1]/5h[8:1],,,,,,4h[8:1]/6h[4:1],,,,,,5s1[2:1]/7s3[2:1],,,,
{1},
{16}6h[4:1]/4h[8:1],,,,,,5h[8:1]/3h[4:1],,,,,,4w8b[4:1]/2,,,,A4f,,,,,,,,,,,,
{16}6,5,6,5,
{8}7h[4:3],,5,,4,,3,,6/2,,3,,7x/4h[8:3],{24}E7,B6,B5,
{16}B4,,,,2xv5-3[2:1],,,,7,,7,,6,,6,,5,,,,
{8}3/5,,6,,2x/5h[8:3],{24}E3,B3,B4,
{16}B5,,,,7xv4-6[2:1],,,,,,,,,,2,,3,,4,,
{16}6,5,7h[8:1],,3,4,2h[8:1],,6,6,8,,3,3,1,,
{8}7/8,1/6,2/5,1/8,2/7,3/6,2/1,3/8,
{16}4,7,3,6,2,5,1,4,{32}1b,2,3,4,5,6,7,8,1b,2,3,4,5,6,7,8,
{1}1bs5b[1:3]/5b-1[1:3],,,{4},,,Cf,
{16}8-4b[8:1],,8,,7-3[8:1],,7,,6-2b[8:1],,6,,5-1[8:1],,5,,
{16}4-8b[8:1],,4,,3-7[8:1],,3,,2-6b[8:1],,2,,1-5[8:1],,1,,
{16}8-4b[8:1],,8,,2,,2h[8:1],,4,,2,1,2,,7,8,7h[2:1],,,,,,,,
{16}1-5b[8:1],,,,{32}B1,Cf,B5,,,,,,
{16}6,7,8,1,4>1[8:1],,3,,4/8,7,6,5,4-7[8:1],,1,,
{16}2-5[8:1]/4,,,,2/8-4[8:1],,,,3/8,,3,,2,4,2,4,
{16}3-6b[8:1],,,,3/7-4[8:1],,,,7/1-5[8:1],,,,1/8,,7x,,
{16}6b,,,,3/5,,2,1,2,,7,8,7h[8:1],,8,,
{16}1/6h[8:1],,,,6h[8:1]/2,,,,3/6h[8:1],,,,3/5,,4/6,,5/7,,
{16}7,7,5,,4,4,2,,1,,2h[8:1]/8,,,,
{24}1/7h[8:1],2,3,4,,,,,,8/2h[8:1],7,6,5,,,,,,1/7h[8:1],2,3,4,,,
{16}4/7,,6,,3/5,,2,,1/8,,8,,2/8,,8,,3/8,,,,3/8,,3,,3/7,,3,,3/6,,,,
{16}5b/7b,,,,2b/4b,,3,4,2,,6,5,7,,Cf,,
{16}8-4[8:1],,,,4/8-6[8:1],,3,,8-4[8:1],,3-1[8:1],,8,,3,,
{16}5-1[8:1],,,,5/2-5[8:1],,3,,2/8,,8,7,6>8b[4:1],,2,2,
{16}A6f,,,,4x,,,,3/7,,2,8,2,,6,4,6,,1,,2/8-4[8:1],,3,3,8,,2,2,5h[8:1],,,,
{16}4/6,,5,5,5,,3/7,,4,6,4,,2/8,,1,1,1,,2/8,,3/7,,4/6,,5h[8:3],,,,3h[8:1],,,,
{16}3x,5,3,5,2x,4,2,4,3x,5,3,5,4x,6,4,6,
{16}5x,7,5,7,2x,8,2,8,3x,4,3,4,8x,7,8,7,
{16}5x,6,5,6,5x,7,5,7,1x,8,1,8,2x,7,2,7,
{16}3bh[8:1]/6bh[8:1],,,,3b/6b,,3b/6b,,
{16}2bx-5b[8:1]/7bx-4b[8:1],,1b/8b,1b/8b,2b/7b,,,,
{16}3x,4,2,5,3x,4,2,5,4x,5,3,6,5x,6,4,7,
{16}1x,8,3,4,1x,8,5,6,3x,3,4,2,6x,6,5,7,
{16}1x,8,2,7,1x,8,2,7,4x,5,3,6,4xv1b[8:1],5,3,6,
{16}4b,,,,8b,,1b/8b-5b[8:1],,,,2b,,2bh[8:1],,,,
{16}2/4,,2/4,,3,5,3,,4/6-2[8:1],,2-8[8:1],,6,,,,
{16}3-5[8:1],,2,,3/7-4[8:1],,,,2-6[8:1]/7,,,,2/8-4[8:1],,7,,
{16}1-3[8:1]/8,,2,,1/5<8[8:1],,,,3-1[8:1]/5,,4,,3/7<4[8:1],,,,
{16}1/7,,,,2x/4x,,3/5,,6,4,6,,5-2[8:1],5,7,,
{16}5-8[8:1],,,,1<6[8:1]/5,,,,3/1>4[8:1],,,,1/7,,,,
{16}4bx/8bx,3/7,2/6,1/5,4b/8b,,4b/8b,,1b/5b,,1b/5b,,2b/6b,,4b,5b,
{16}3b-5b[8:1],,5b-1b[8:1],,7b-3b[8:1],,,,7b,,,,1bw5b[8:1]/5b,,,,
{1}1b,
A1/A2/A3/A4/A5/A6/A7/A8/D1/D2/D3/D4/D5/D6/D7/D8/B1/B2/B3/B4/B5/B6/B7/B8/E1/E2/E3/E4/E5/E6/E7/E8/Cf,
