&title=魔术先生
&artist=周杰伦
&first=0
&lv_5=13+
&des_5=尼可拉或许可能不拉
&inote_5=
(128){32},{16},,,{32}Cfh[32:17],{2},{64}B7/B6/B2/B3,E7,E3,D7,{16}D3/A2/A3/A7/A6,{8},7h[8:1],
{16}5,6,,5,6,5,{8}7h[8:1],{16}5,6,,5,6,5,
{8}7h[8:1],{16}5,6,,5,6,5,{8}7h[8:1],8h[8:1],1h[8:1],2,
2h[8:1],{16}4,3,,4,3,4,{8}2h[8:1],{16}4,3,,4,3,4,
{8}2h[8:1],{16}4,3,,4,3,4,{8}2h[8:1],3h[8:1],4>6q4[2:1],5h[8:5],
{4},,,{8}3/5<3p5[2:1],4h[8:5],
{4},,,2/4,
{16}2x,3x,{8}4xh[8:1],{16}2x,3x,{8}4xh[8:1],{16}7x,6x,{8}5xh[8:1],{16}7x>4p6[2:1],6x,{8}5xh[8:5],
{4}7x,{2},{8}4,3,
{4}7h[8:1]/2h[8:1],{8}2/7h[8:1],3,{4}7h[8:1]/4h[8:1],{8}4/7h[8:1],3,
2/7h[8:1],2h[8:1],7h[8:1],1,{4}1h[8:1]/7h[8:1],{8}5/2h[8:1],6,
{4}2h[8:1]/7h[8:1],{8}7/2h[8:1],6,{4}2h[8:1]/5h[8:1],{8}5/2,6/3,
7/4h[8:1],7h[8:1],4h[8:1],8,{4}4h[8:1]/8h[8:1],{8}8/4,7/3,
{4}6h[8:1]/2h[8:1],{8}3/7h[8:1],4,{4}8h[8:1]/5h[8:1],{8}4/7h[8:1],3,
{4}6h[8:1]/2h[8:1],{8}1/7h[8:1],2,{4}8h[8:1]/3h[8:1],{8}6/2h[8:1],5,
{4}1h[8:1]/4h[8:1],{8}5/2h[8:1],6,{4}3h[8:1]/7h[8:1],{8}8/2h[8:1],7,
{2}1h[2:1]/6h[4:1],{4}B1,{8}4,3,
{4}2h[8:1]/7-5[16:1],{8}2/7,3,{4}4h[8:1]/7-5[16:1],{8}4/7,3,
2/7-5[16:1],2h[8:1],7,1,{4}1h[8:1]/7<4[8:1],{8}7/4,3,
{4}5h[8:1]/2-4[16:1],{8}7/2,6,{4}5h[8:1]/2>5[8:1],{8}5/2,6,
7/4,7h[8:1],4h[8:1],8,{4}4h[8:1]/8h[8:1],{8}8/4,7/3,
6/2,{16}3>6[4:1],4,,4,{8}3,{2}6-3[8:1]*>3[8:1],
{8}4/6,{16}6-8>1-3[4:1],5,,5,{8}6,{2}3-6[8:1]*<6[8:1],
{8}4/7v5[8:1],3,2-6[8:1],1,{4}2/4V68[8:1],4/2-6[8:1],
{8}2/4<2b[4:1],{4},{8}Cfh[8:1],{4},{8}8/4,7/3,
6/3h[8:1],{16}5,4,,3,{8}4,2/5,6/3-6[8:1],7/4,3/8h[4:3],
,7<3[4:1],{2},{8}1/5,2/6,
3/6h[8:1],{16}4,5,,6,{8}5,7/4,3/6-3[8:1],2/5,6/1h[4:3],
,2>6[4:1],{2},{8}7h[8:1],5,
{1}8h[4:3]/4bv7<6-4qq2-4<5[2:1],
8h[4:3]/4bpp4qq4[2:1],
{8}8-3[8:1],7,8/6-1[8:1],5,6/4-7[8:1],3,4/2-5b[8:1]*-7b[8:1],1,
{2}2b,{24}8x/1,7x,6x,5x,4x,3x,2x,1x,8x,7x,6x,5x,
{8}2/4h[8:1],{16}2-7[16:1],8,,4,{8}2,5pp8[4:1],6/3,5/2-4[8:1],1,
2,{16}7-2[16:1],1,,5,{8}7,{4}3-6[8:1],3/8h[8:1],
{8}7/5h[8:1],{16}7-2[16:1],1,,5,{8}7,4qq1[4:1],3/6,4/7-5[8:1],8,
7,{16}2-7[16:1],8,,4,{8}2,{4}6-3[8:1],6/1h[8:1],
{8}2/4h[8:1],{16}2-7[8:1],1,,5,{8}2,5V74[4:1],6,5/8-3[8:1],1,
8,{16}6-1[8:1],5,,5,{8}6,{4}2-7[8:1],{8}2/8,6,
{16}4bV61[4:1],{8},{16}1,{8},3-8[16:3],,6,5,4,
{4}3xh[2:1]/7xh[2:1],{2},{32}3b/7b,4x/8x,{16}1x/5x,{8},(64)7h[8:1],
B7,(66)2h[8:1],B2,(68)7V53[4:1],5,(70)3V17[4:1],1,
(72)7V52[4:1],5,(74)2V47[16:3],1,(76){4}8V26[16:3]*V25[16:3],8,
(78){8}2h[8:1],B2,(80)7h[8:1],B7,(82)2V46[4:1],4,(84)6V82[4:1],8,
(86)2V47[4:1],4,(88)7V52[16:3],8,(90){4}1V75[16:3]*V74[16:3],(92)1,
(94){8}2h[8:1],B2,(96)7h[8:1],B7,(98)7/2h[8:1],B2,(100)2/7h[8:1],B7,
(102)6h[8:1]/2h[8:1],{32}B6/B2,C,{16},(104){8}7h[8:1]/3h[8:1],{32}B7/B3,C,{16},(106){8}6h[8:1]/2h[8:1],{32}B6/B2,C,{16},(108){8}3h[8:1]/7h[8:1],{32}B7/B3,C,{16},(110){8}1>3[0.2673##0.2673],
3<5[0.2673##0.2673],(112)5<7[0.2679##0.2679],7>1[0.2679##0.2679],(114)1>4[0.2632##0.2632],4<7[0.2632##0.2632],(116)7>2[0.2534##0.2534],2>5[0.2586##0.2586],
(118)5<1b[0.2492##0.2492],1>5b[0.2492##0.2492],(120)5<1b[0.25##0.25],1>5b[0.25##0.25],(122)5<1b[0.241##0.241],1w5b[0.241##0.123],(134){4}A1f,
(256)8b/2b>4[8:1],{8}2/8,7<5[8:1],,7/2,{4}3>8[8:1],
3/5,6<1[8:1],6/4,3,
2/7<4[4:1],{8}7/2,1V35[4:1],,1/7,{4}8-2-6[4:3]*-3-5[4:3],
{1}8,
{4}1b/7b<5[8:1],{8}7/1,2>4[8:1],,2/7,{4}6<1[8:1],
6/4,3>8[8:1],3/5,6,
7/2>5[4:1],{8}2/7,8V64[4:1],,8/2,{4}1-7-3[4:3]*-6-4[4:3],
{1}1,
{4}4b/6b<8[8:1],{8}6/4,3>1[8:1],,3/6,{4}7V53[4:1],
3V17[4:1],7<3[4:1],3>7[16:5],7,
4h[4:1],{8}5,4-1[8:1],,4,{4}7-4[8:1]*-2[8:1],
{2}7,{4}5,6,
{8}7b/8V25[8:3],{4},{8}7,{4},1V74[2:1],
,2,1,8,
{1}7h[1:1]/3h[1:1],
{2},{32}3b/7b,8x/4x,1x/5x,2x/6x,{8}3x/7x,
