&title=PHYSALIS
&artist=TAG
&first=0.05
&des_1=Vs. LaPiens
&des_2=Vs. LaPiens
&des_3=Vs. LaPiens
&des_4=Vs. LaPiens
&des_5=Vs. LaPien & DiffeR
&lv_5=14+
&des_6=Vs. LaPiens
&des_7=Vs. LaPiens
&des=Vs. LaPiens
&inote_5=(199.94){4},,,,{1}7h[1:1],
{2}5h[1:1],4,
{1}3h[1:1],
1-5[4:3],
4h[1:1],
6h[1:1],
8h[1:1],
1w5[2:1],
8-2v3-5-8[4:5],
{2}1,2,
{1}3-1>2-6[2:3],
8,
8-4[4:1]/5>7[4:3],
{2}4-8[4:1],1h[2:1],
{1}7V13V57[2:3]*>8V24V68[2:3],
{8},,,,,,,,2/8,
8/2,3/7,3/7,,7/1,1/7,6/2,
2/6h[8:3],,,1,2/8,7/3,{4}4/6,
{8}3/5,5/3,2/6,2/6,,6/4,4/6,7/3,
7/3h[8:3],,,8,7/3,6/2,{4}5/1,
{8}8/4,1/5,2/6,7/3,,8/4,7/3,6/2,
5/1h[8:3],,,4,5/2,6/3,{4}7/4,
{8}8/7,7/8,6,5x/7,,1,1/2<3[2:1],3,
{2}2/4,{4}8w4[8:1],8,
6/2h[8:1],{8}7/2h[8:1],7,{4}2h[8:1],8/2h[8:1],
1/2h[8:1],1/2h[8:1],{8}4/1,5,{4}4/6,
1/7h[8:1],{8}8/7h[8:1],8,{4}7h[8:1],6/7h[8:1],
5/7h[8:1],4/7h[8:1],{8}4/3,2,{4}5/1,
{8}7/8,{16}6,1,{8}6,{16}6,2,{8}6,{16}6,3,{8}6,{16}6,4,
{8}7,{16}7,5,{8}7,{16}7,6,{4}8-5b[8:1]*-3b[8:1],8,
{8}1/2,2/1,3/8,3/8,7/4,6/3,5/2,1/4,
{4}3q7[8:1]/8>3[8:1],3/8,{32}1,2,3,4,5,6,7,8,{4}5-2b[8:1]/1-6[8:1],
{1}5b-7V13-5<1[8:13]/1b-3V57-1>5[8:13],
,Cf,
,,,7h[1:3],
{2}5,4,
{1}3h[1:1],
{2},B7/B3,
{4}2h[4:3],{8}E4,E5,,7,{4}7V53V57[1:1],
{2}1,C,
{4}3h[4:3],{8}E2,E1,,6,{4}6V82V86[1:1],
{2}4,B5/E5,
{4}5h[2:1],{8}E6,E7,{2}E8h[4:1],
{4}1h[2:1],{8}E2,E3,{2}E4h[4:1],
{8}2,2,,3/4,{4}3,2/5<8[4:1],
8>3[4:1],3<6[4:1],6<1[4:1],1,
{8}2,2,8/3,8/3,7,7,6/1,6/1,
2,2,3/4,3/4,5,5,6/4,6/4,
{16}A7,A8,A1,A2,A3,A4,A5,E7,E8,E1,E2,E3,E4,E5,{8}1bh[4:1],
,5,{4}3bx-8[8:1]/7bx-4[8:1],3/7,2/6,
{8}8b/2b-5[8:1],3,2<7[8:1],6,2,4-8[8:1],1,4/2-5[8:1],
,2/7-3[8:1],,7/8>3[8:1],{24},,,8/4,5,6,{8}7,1b,
3-8[8:1],3,7qq7[4:1],7,{4}1>4b[8:1],1,
{16}7,4,7,4,8,3,8,3,2,1,8,7,6,5,4,3,
{4}6/2-6[8:1],{8}2x,5,4-7[8:1],3-8[8:1],4,3,
6,{16}2,4,{8}3h[8:1],{16}5-1[8:1]*-2[8:1],4,{8}6,5,{4}D2f/A1/A2,
{8}8/3x-5[8:1],5x-2[8:1],3,6,{4}8-4[8:1],{8}3/8,2b-5b[16:1],
,2b/7b-4b[16:1],,7b/1-6b[8:1]*-5b[8:1],,1b,,7,
6b-1[8:1],5,6>3[8:1],2,6,8-4[8:1],5,8/6-1[8:1],
,6/2,{4}3v8b[16:1],{16}7bv4b[16:1],,,1b,,,{8}3b,
2b-6[8:1],6x-1[8:1],2,5x,4<7[8:1],4x,2x,3-8[8:1],
8V25[8:1],3x,{4}6x-1b[8:1],{16}4b-7b[8:1],,,8b,,,{8}1b,
{4}8b/2b,{16}3,4,3,4,2,5,2,5,1-5[8:1],6,1,6,
{4}E7f,{16}6,4,6,4,7,3,7,3,8,2,8,2,
1b,1x,1,1,1b,1,1,1,{32}1b,2,3,4,{16}1,1x,1b,1,1,1,
{4}1b-6[8:1],1x/7x-4[8:1],{16}5x/7x,,,3,,,{8}1/8,
2bx/7,{16}3,4,{8}3,{16}3,6,{8}3,{16}3,8,{8}3,1x/2x,
{16}3,4,5,6,2,3,4,5,{32}1,2,3,4,5,6,7,8,{4}1/5bx,
{8}2/8,3,{4}4/E7h[8:11],{48},,,,,,B5f,B4,B3,B2,,,,,,,,,,,,,,,E5f,
E4,E3,E2,,,,,,,,,,,,,,,A4f,A3,A2,A1,,,,,,,,,{8}Cf,,8b,
7/1,6,{4}5/E3h[8:11],{32},,,,B4f,B5,B6,B7,,,,,,,,,E5f,
E6,E7,E8,,,,,,,,,A5f,A6,A7,A8,,,,,{8}Cf,,4b,
3/5,2,{4}1/6/E7h[8:11],{32},,,,B8f,B1,B2,B3,,,,,,,,,E1f,
E2,E3,E4,,,,,,,,,A1f,A2,A3,A4,,,,,{8}Cf,,5b,
6/4,7,{4}8/E3h[8:11],{32},,,,B1f,B8,B7,B6,,,,,,,,,E1f,
E8,E7,E6,,,,,,,,,A8f,A7,A6,A5,,,,,{8}Cf,4b,5bx/6bx,
{4}7bh[4:1],{8}5b,8bh[4:1],,3b,{4}6bh[4:1],
{8}4b,7bh[4:1],,2b,{4}8b<5[8:1]/4b>1[8:1],A4f/A8f,
{8}6b,1b,{4}2bh[4:1],{8}4b,1bh[4:1],,6b,
{4}3bh[4:1],{8}5b,2b,{4}3b>8[8:1]/7<4[8:1],A3f/B3/E4/A7f/E8/B7,
{8}1bxh[4:1],4b,4b,7bh[4:1],5b,5b,2bh[4:1],3b,
3b,8bh[4:1],6b,6b,{4}7b>3[8:1]/8b<4[8:1],E8f/A7/A8/E7/E1,
{8}3bx/4bx,A7/D7/A6/D6/A5/E7/E6/E5,,7bx/8b,{4}A3/D3/A2/D2/A1/E3/E2/E1,{8}5bx/6bx,D3/A3/D4/A4/E3/E5/E4f/A2,
,2bx/1b,{4}D7/A7/D8/A8/E7/E1/E8f/A6,{32}1bx,2bx,3bx,4bx,5bx,6bx,7bx,8bx,{4}5b/1bx-5[8:1],
{8}8/1,,,,,4,3,2b/A6f/E7/E6/A5,
,8b/E4f/B4/E5/A4/A3,,6b/A1f/E1/E2/A2,,3/A6f/B7/E8/A7/E7h[8:1],,,1bx-5[8:1],
7x,1x-6[8:1],{16}6,6x,{8}1,5,{16}3b,4,{8}2,
{16}7b,8,6,1,5,2,4,3,6b,5,7,4,{24}8,1,2,3,4,5,
{4}2b/6-1[8:1],{8}3-8[8:1],4,7-4[8:1],6,{16}3,2,{8}1b<6[8:1],
,4-7[8:1],4,{16}1,2,{8}3,8x/4,7/3,6/2,
1-5[8:1],5-1[8:1],1,7>2[8:1],,7/3-8[8:1],,3b/4h[4:1],
,1,2/5,{16}6,5,{4}7bw3b[8:1],B7f/E7/E8,
{8}1bx>4[8:1],8,1-6[8:1],{16}6,6,{8}1x,5,{16}3b,4,{8}2,
8bx-3[8:1],3>7[8:1],{4}8,{16}5b-2b[16:1],,,8b-4b[16:1],,,{8}1bx,
{4}B2f,{8}6-1[8:1],5,2-5[8:1],3,{16}6,7,{8}8b>3[8:1],
,5v8[8:1],{4}5,{16}7bx-4b[16:1],,,1bx-5b[16:1],,,{8}2bx,
{4}A8f,{16}7b,5,6,3,4,2,8,1,6,5,7,2,
4b,3,6,1,8,2,7,3,6,4,5,3,6,2,7,1,
8b,8,8b,8,8b,8,8b,8,{32}8bx,7x,6x,5x,{16}8bx,8,8b,8,8b,8,
{32}8b,7x,6x,5x,{16}8bx,8,8b,8,8b,8,{32}8b,1x,2x,3x,,,7b,6,5,4,,,{8}8,
7/1bx,{16}2,4,{8}3b,{16}7,5,{8}6b,{16}3,4,{8}2b,{16}6,5,
{8}7b,{16}2,1,{8}2b,{16}7,8,{4}6b-1[8:1],6b/2bh[4:1],
{16}E1,E2,E3,E4,E5,E6,E7,E8,A1,A2,A3,A4,A5,A6,A7,A8,
D1f,,,D5f,,,{8}Cf,{16}D7f,,,D3f,,,{8}1b/5b,
,,,,,,{4}2b/6b,
{16}3,4,3,4,2,5,2,5,1,2,3,4,8,7,6,5,
2,5,2,5,1,6,1,6,2,3,4,5,8,7,6,5,
2,3,4,5,1,2,3,4,7,6,5,4,8,7,6,5,
8,4,8,4,1,5,1,5,{32}2,3,4,5,6,7,8,1,{4}2/6,
{16}5,6,7,8,4,3,2,1,7,8,7,8,6,1,6,1,
7,6,5,4,1,2,3,4,7,3,7,3,6,2,6,2,
5,1,4,8,3,7,4,8,5,1,6,2,7,3,{8}8-4[8:1],
,8<5[8:1]*>3[8:1],,8,,2/6,{4}6/2,
{16}1b,5,1,5,2,6,2,6,1,2,3,4,8,7,6,5,
3b,5,3,5,2,6,2,6,{32}2b,3,4,5,,,8b,7,6,5,,,{8}1,
{16}2b,6,2,6,3,7,3,7,6,5,4,3,1,2,3,4,
6b,5,6,5,7,3,7,3,{32}7b,6,5,4,,,1b,2,3,4,,,{8}8b,
{16}1b/7,6,5,4,2,3,4,5,8b,7,6,5,1,2,3,4,
6b,7,8,1,3b,4,5,6,2b,3,4,5,1bx,2,3,4,
7b,8,6,1,4b,3,5,2,{24}6b,7,8,2b,3,4,{32}8x-4[8:1],7b,6b,5b,4bx,3bx,2bx,1bx,
4bxw8b[2:1],B8f,C,B4,{8}A4,{16},,,,,,,,,,,,3b,
4,3b,4,{8}2b,{16}6b,5,6b,5,{8}7b,{16}2b,1,2b,1,
{8}3b,{16}7b,8,7b,8,{8}6b,1-5[8:1],3/4,{4}8/Cf,
{16}6b,5,6b,5,{8}7b,{16}3b,4,3b,4,{8}2b,{16}7b,8,7b,8,
{8}6b,{16}2b,1,2b,1,{8}3b,8-4[8:1],6/5,{4}1/Cf,
{16}2bx,4,3bx,4,{8}1bx,{16}7bx,5,6bx,5,{8}8bx,{16}3bx,1,2bx,1,
{8}4bx,{16}6bx,8,7bx,8,{8}5bx,2,5/3,{4}7/Cf,
{16}1b,5b,3b,4b,{8}2b,{16}8b,4b,6b,5b,{8}7b,4-8[8:1],3,
{2}4x/2h[2:1],{32}8x,1x,2x,3x,4x,5x,6x,7x,{4}4b/8h[2:1],
{32},,,,,,,,Ch[4:7],B2/B7f,B6/B3,E7/E3,
E
