&title=JOINT
&artist=川田まみ
&first=0.08
&des=仙彗星座
&lv_5=13
&inote_5=(180)
{1},
{8}4hx[8:3],,,6,6V47[8:4],,,,,,,,2,,1,,
{8}5hx[8:3],,,3,3-5v2[8:4],,,,,,,,7,,8,,
{8}34,34,3hx[8:2],,6V47[8:4],,,,,,,,2,,1,,8>8[4:5],,,,,,,,,,,,
{8}3,,1x,,
{8}6h[8:1],5,4h[8:1],5,3h[8:1],4,5h[8:1],4,6h[8:1],5,4h[8:1],5,
{8}5x/6x,7,6x/5x,4,
{8}3h[8:1],4,5h[8:1],4,6h[8:1],5,4h[8:1],5,3h[8:1],4,5h[8:1],4,
{8}2x>5[8:1],1,8x,7,
{8}6h[8:2],5,4,4,5h[8:2],3,3,4,3h[8:2],5,6,6,
{8}7x/5x,6,4x/5x,3,
{8}2-4[8:1],2,4,5,6-4[8:1],6,4,3,
{8}25,1,6,4/7h[8:2],,1,2x/8x,,
{8}5h[8:2],,4,4,,3,2>5[8:1],,1,8,7,7hx[8:3]/6x-1b[8:1],,,,,
{8}1h[8:2],,8,8,,7,6<1[8:1],,5,4,3,3hx[8:3]/2xv5b[8:1],,,,,
{8}1-6[8:1],,6,5h[8:2],,4,3>8[8:1],,5,6,7,7v4b[8:1],,,,,
{8}3,,6,47,5-2[8:1],,8,,
{16}7,,78,,6,,2,,3x/4x-8b[8:1],,4x/5x,,6hbx[8:2],,,,
{8}1x-5[8:1],,1x/8x,,7h[8:2],,5,5h[8:2],,4,3h[8:2],,1,1>5[8:2],,1/2V84[8:3],,,,,5h[8:1],,47,,3h[8:1],,25,,
{8}1,1,8,2h[8:2],,,2/4<1[8:3],,1,,3,3h[8:2],,4,5h[8:2],,6,6,,8,8>3[8:1],,3,,4-1[8:1],,8,,6,6pp5[8:3],,1h[8:2],,,1,,3x/7hx[8:3],,,,
{8}57,,4,4h[8:2],,6,74,,2,2pp1[8:3],,8h[8:3],,,,,1,1,7,7,2,2,6,6,3,3h[8:2],,4q5[8:3],,,,,
{8}2,,5,5h[8:2],,3,25,,7,7h[8:2],,1,1-6[8:1],,18,,8-4[8:1],,48,,3,5-1[8:1]/2,,56,
{8}7<4[8:1],8,1,2,
{16}3h[16:3],,,,3/4h[8:2],,,,
{8}5,5-2-7-4-1-6[8:6],,7h[8:3],,,,,8h[8:2],,,,
{16}6h[16:3],,,,6/5h[8:2],,,,
{8}4,4-7-2-5[8:4],,2h[8:3],,,,,1h[8:2],8,8,8,
{16}3h[16:3],,,,3/4h[8:2],,,,
{8}5,5>2[8:2],,7h[8:3],,,,,1/8-4[8:1],,,,
{8}3>8[8:1],,5,,6-1[8:1],,4,,2-6[8:1],,12,,8-3[8:1]*-5[8:1],,8,,
{8}4,2,8,6-3[8:1],,6,2,1h[8:2],,,1x/7x,,
{32}E2,E3,E4,E5,E6,E7,E8,E1,5bx,,,,5x<8[8:1],,,,,,,,
{8}1,2>5[8:1],,12,8,7,6-1[8:1]/1,,56,4,4qq5[8:2],,,,
{8}7>2[8:1],,74,4-8[8:1],,4/3,3pp2[8:2],,3/8,,7,7h[8:2],,4-7[8:1],2-5[8:1],4,2,,
{8}8x,8x>4[8:1]*q4[8:1],,8,,6,5/7-4[8:1],,2,2<7[8:1],,2,5h[8:2],,,1-6[8:1],2,3-8[8:1],4,5-1[8:1],,6/5pp4>5[8:6],,,,,,
{8}4x,3x,2x,1x-6[8:1],,1,5-8[8:1],5,1,2,3,3qq5[8:2],,,6,6<1[8:1],,,,
{8}3<6[8:1],,38,8-3[8:1],,8,4qq5[8:2],,48,,6,6h[8:2],,4-1[8:1],2-5[8:1],4,2,,8x,8x<4[8:1]*p4[8:1],,8,,3,
{8}2-5[8:1]/4,,6,6v1[8:1],,6,4h[8:2],,,8-3[8:1],7,6-1[8:1],5,4-8[8:1],,34,3>5[8:2],,4,4h[8:4],,
{24}B3,B2,B1,B8,B7,B6,B5,B4,,,,,
{8}8,8x-3[8:1],,86,6x-1[8:1],,64,4x-7[8:1],,24,2hx[8:3],,,
{16}8,1,7>4[4:12],,,,7bx/2bx<5[4:11],
