&title=Rechronize
&artist=あとぅす feat.咲良ゆの
&first=0.225
&des_5=Aria x Elna
&lv_5=14
&des=Aria x Elna
&inote_5=(144),,,
Ch[2:1],,B8/B1/E1,
{16}E7/E3,,B6,B5,E5,,,,B2/B3,,,,B5/B6,,,,E7/E3,,B3,B4,E5,,,,
B6,,,,E8/B8,,,,B3,,,,B1/E2,,,,C,,E6,E5,E4,,,,B6/B3,,,,B8/B1/E1,,,,,,,,
4h[4:1]/3,,,,,,2,3,4h[1:1],,,,
{4}E6,B3,B7,E2,8h[4:1],
{16}1,,,7xp5[32:49]/3x,7x/3xp1[32:47],,,,,,,,,,,,,,,,,,,,,,,,,,,,,,,,,
{32},
(154)
{16}4,5,4-8[8:1],,
{8}6,7-4[8:1]/4,6,7/1b,
{16}1,2,3h[8:1],,5,4-1[8:1],6,,6,4,,
,8<5[8:1],,
{8}7b,8>3[8:1]/3,2b,6/8,7b,6/4,6/4,
{16}3,5-7[8:1],2,,3,5,,,1,1,8,,2-4[8:1],1,,8,2-8[8:1],,
6b,,2-5[8:1],,7b,,2,,6b,,7/4,,6,5,7,5,8h[8:1],,1-5[8:1],2,3,,
{8}6/1,7-3[8:1],8-4[8:1],7,8,5<2[4:1],5,2<5[4:1],3,4,
{16}4,3,2,1,8/4,,6b/2b,,3,5,4-1[8:1],6,3,5,4b,,7,,5-8[8:1],3,6,4,5b,,
2,2,1x/3x,,7,7,8x/6x,,5/4,,1/3,,5/4,,7b/2b,,
3,4,2h[8:1],,4,3,8h[8:1],,3,4,1h[8:1],,4,3,7h[8:1],,3,4,2h[8:1],,
4,3,5,,5,,6/4,,
6,5,7h[8:1],,5,6,1h[8:1],,6,5,8h[8:1],,5,6,2h[8:1],,6,5,7h[8:1],,
5,6,4,,4,,3V52[16:3]/5,,5,,7/3,,
{8}8,8-4[8:1],3,2/8<5[8:1],2,8/3h[4:1],,
4,3,5/2,
{16}3,4,3,,5,4,6,,6,,7v4[8:1]/5,,8,,7/1h[4:1],,,,5,,5,,
{8}6/4,3,4/2,5,7-4[8:1]/3-8[8:1],,7/3,,
1/5,1/5,7/3,7/3,6b/2b,
{16}3,5,4-8[8:1],,8V25[4:1],8,,,5,,6,,7,,7h[16:3],,,5h[16:3],,,4<7[8:1],,5/3,,2,,2,,1pp2[16:3],8,2,,6,6,,,
5pp6[16:3],,5,,2,2,,,2x,3,4-1[8:1],,
{8}4,7-4[8:1],7,2-7[8:1],2,5-1[8:1],5,1b,,
2h[8:1]/8h[8:1],,7h[8:1]/1h[8:1],,4/3,5,
{16}6h[16:3]/4,,,4h[16:3],,,3<6[8:1],,4/2,,1,,1,,2,3,4b/7b,,6,,2/5,,3,,
5b/4,,6,,5/4,,3,,
{24}2,3,4,
{16}7,
{24}1,2,3,
{16}6,4,7,5,6,2,5,3,4,1,8,1h[8:1],,
8-4[8:1],7,6,,8/3,,2,,2>5[8:1],1,3,,8,7,6h[8:1],,
{8}7-4[8:1],8,1-5[8:1],8,1,
{16}8,7,6,5,4h[8:1],,3>8[8:1],4,,4,3,,7,,
6<1[8:1],5,,5,6,,
{8}3,2-5[8:1],1,8-4[8:1],1,8,
{16}1,2,3,4,5>2[8:1]/6,,8-4[8:1],7,6,,8,,
{8}1x-5[8:1],7x-4[8:1],1x,7x,3,3,4/2,1,7/8,
{16}8,7,1,6,2,5,3b-5[8:1]/4b,,
{8}7x-3[8:1],3,7,1h[4:1],,5-2[8:1],6,7-4[8:1]/5,8,7/3>6[4:1],3,6<3[4:1],5,4q1[16:3],,4x,
{16},2xh[16:3],,,
8-4[8:1],7,6,,4,3,2-5[8:1],,5,6,7-3[8:1],,
{8}8-4[8:1],7-5[8:1],8,7,3,4/2,4/2,1h[8:1],
{16}7<4[8:1],8,,8,7,,3,,2>5[8:1],1,,1,2,,6,,
{8}7h[8:1]/4x,8,2h[8:1]/5x,1,8/2,
{16}8/2,7,6,5,4<7[8:1]/3,,1-5[8:1],2,3,,
{8}1,8x-4[8:1],2x-5[8:1],8x,2x,6,6,7/5,8,1/2,
{16}2,1,3,8,4,7,6b/5b,,
{8},6h[8:1]/4h[8:1],,5h[8:1]/3h[8:1],,
B6/B5/Cf/B2/B3,,
{16}6b/2b,,,7b/3b,,,8b/4b,,1b<6[8:1]/5b>2[8:1],,,,
{24}1x/5x,,,,,,
5x/1x,6/2,7/3,8h[4:1]/4h[4:1],,,,,,,,,
{8}7/5,6,6,5,4/2,3,3qq6[2:1],4,5h[4:1],,,7,7h[8:1],
{16}8x,8x,,6,5,,
{8}7/4,6/3,5/2,
{16}3,4,1b-5[8:1],,,,1b,,,,6/4,,6/4,,3,5,2,4,1h[16:3],,,2h[16:3],,,3,,
3b/4b,,5,,6/4,,7,,8/1,,2,,4/3,,5,,6/2,,7/3,,8/4,,7/3,,
{8}2v5[8:1],5>2[8:1],6,7,8v5[8:1],5<8[8:1],4,3,2h[2:1],,1h[4:1],,,
8/3,
{24}E4,B4,B5,E6,,,
Ch[4:3],,,,,,,,,,,,,,,,,,,,,,,,
{8}7b/2b,5b/4b,8b/1b,6b/3b,8b-3[8:1]/1b-6[8:1],,,,
5/4,
{16}3-8[8:1],4,2,,7/3,,7h[8:1],,5,6,4<7[8:1],,3,,
{8}4/2-6[8:1],1,8-4[8:1]/2,1,8/2,1,
{16}5v2[8:1]/1,2,3,4,5/6,,8-4[8:1],7,6,,
{8}8/3>8[8:1],2,5/3,
{16}5>2[8:1],6,7,,
{8}8x-4[8:1],1x-3[8:1],8x,1x,5,
{16}6<1[8:1],5,7,5,6,,
{8}2,2,4/3,5,6/4,7,6/5,2,4/3,8/1,7/2,6/3,5-8[8:1]/4-1[8:1],5/4,5b/4b>5[16:5],,,,Cf,,
8/3,
{16}7,5,6<1[8:1],,
{8}5,6/2>5[8:1],3,6<5[16:5]/2,7,6/4h[4:1],,,2,2h[8:1],
{16}7-4[8:1],8,,8,7,,3,,2-5[8:1],1,,1,2,,6,,7h[8:1]/4,,1,,5/2h[8:1],,8,,
7/3,,8/4v7[8:1],7,6,5,4/3,,1-5[8:1],2,3,,6<1[8:1]/1,,7,,6/4,,4<7[8:1],3,2,,1b,,1,,8/2,,7,,6/4,,3>8[8:1],4,2,4,3,,
{8}7,7,6/5,2,4/3,5,B6/B5/Cf/B3/B2,,
{16}6b/2b,,,7b/3b,,,8b/4b,,1b<6[8:1]/5b>2[8:1],,,,
1x-5[8:1]/5x,,,,,,,,,,
{8}E6,E7,E4,E3,C,8/1,
{16}6,5,7h[8:1],,1,8<5[8:1],2,,1,8,,,3h[8:1],,
{8}4-8[8:1],2-5[8:1],4,2,7h[4:1],,5,
{16}5,6<8[8:1],4,,5,6,,,1,1,8x/2x,,3>1[8:1],4,,4,3,,7b<2[4:1],,
{8}8,2>7[4:1],1,8,,1,2,3/8,
{16}6,5,6,,4,5,3,,4/2-5[8:1],,1,,2/8,,
{8}7-3[8:1],8-4[8:1],7-5[8:1],8,7,
{16}8x,1,2,3,4,,
{8}5/4,6,
{16}4,5,3,,5b,4,6,3,4,2,7,5,6,4,5,3,4,2,
{24}5,6,7,
{32}8x/3,4,5,6,7,8,1,2,3-6[8:1]/7x-2[8:1],4,5,6,7,8,1,2,3b/7b,,,,
{4},
E
