&title=春難色
&artist=稲葉曇 Vo. 彩澄しゅお & 彩澄りりせ
&first=0
&des=harusionika
&wholebpm=144.000
&des_5=harusionika
&lv_5=13+
&inote_5=(144)
{1},
{4}B3,
5h[4:1],
{8}3,3,
{4}6-4[8:1],
{4}3,
2-4[8:1],
5,
7,
{4}8h[4:1],
{8}3,2,
{4}1-5[8:1],
{8},7,
{4}7-5[8:1],
4,
3,
1h[4:1],
{4}8,
7h[4:1],
{8}6,5,
{4}4-6[8:1],
{4}7,
8-4[8:1],
{8}3,2,
{4}1h[4:1],
{4}8-5[8:1],
{8}2,3,
{4}4-1[8:1],
{8}5,6,
{4}7-4[8:1],
3,
2,
1h[4:1],
{4}8-4[8:1],
3,
2-6[8:1],
7,
{4}8-4[8:1],
3,
2-5[8:1],
8-4[8:1],
{2}1h[4:1],
{4}2-5[8:1],
8-4[8:1],
{2}3h[8:1],
{8}6,6,
4,5,
{8}3,2,
{4}4-6[8:1],
2-4[8:1],
5-2[8:1],
{4}6,
7-4[8:1],
{8}3,3,
2,2,
{4}1h[4:1],
7-4[8:1],
2,
1-5[8:1],
{4}6,
8-4[8:1],
3,
{8}6,7,
{4}8h[4:1],
5-3[8:1],
7-5[8:1],
4-7[8:1],
{4}3,
2-5[8:1],
{8}6,6,
7,7,
{4}8-4[8:1],
1,
2/5,
3/6,
{1}4bxqq6[2:1]/7bxpp5[2:1],
{4}1b>4[8:1]/6,
{8}1,6<8[8:1],
1-5[8:1],6,
{4}1>6[4:1],
{4}6>1[4:1],
7qq5[16:3],
7,
1>4[8:1],
{4}6,
8<3[4:1],
3<8[4:1],
{8}2,2,
{4}2q3[16:5],
2/8<4[16:3],
8,
{8}1,1,
{4}1h[4:1],
{8}4<7[8:1],2,
4,3>1[8:1],
8p4[8:1],3,
{4}8<3[4:1],
3<8[4:1],
2,
3qq4[4:1],
{4}4<1[4:1]/3,
7,
5-1[8:1],
5/6,
{8}8-4[8:1],7,
3-8[8:1],2,
5-1[8:1],6,
3,3,
{4}4b/8b,
{8}2>5[8:1],6pp8[16:3],
2,6,
{4}2<5[4:1],
{4}5<2[4:1],
4pp4[4:1],
4>7[4:1],
1,
{4}3,
8p2[4:1],
2q8[4:1],
{8}1>4[8:1],1,
{4}1p8[16:5],
2>6[4:1]/1,
2,
{8}7,7,
{4}7h[4:1],
{8}5>2[8:1],8qq6[8:1],
5,8,
{4}1>6[4:1],
{4}6>1[4:1],
8p4[8:1],
8>4[16:3],
8/7,
{4}5-7[8:1],
2-5[8:1]/5v8[8:1],
5>1[16:3],
7,
{8}6-1[8:1],7,
2-5[8:1],3,
8-4[8:1],7,
2,2,
{1}1xp4[2:3]/5xp8[2:3],
{1},
{8},B1,
B5,B2,
{16}B7,,,B3,
{8},B6,
{2}C,
{8},8h[8:1],
2h[8:1],5h[8:1],
{4}3b,
6h[4:2],
5,
4,
{2}3-6[4:1],
{4}7h[8:3],
8,
{2}1-4[4:1],
5h[2:1],
{4}3,
2,
{2}1h[4:1]/5-8[4:1],
{2}2h[2:1],
1-5[4:1],
{4}3,
4,
{2}5>2[4:1]/6h[4:1],
{2}7h[8:3],
1>4[4:1],
{4}8,
7/B3,
6/B2,
5/B1,
{4}2h[8:1]/5h[8:1],
3<6[8:3],
7,
8,
{4}1h[384:1],
2>5[8:3],
6,
7,
{4}8h[384:1],
1>4[8:3],
5,
6,
{4}7h[384:1],
{2}8-5[2:1]/4-1[2:1],
{4},
{4},
6>3[8:3],
2,
1,
{4}8h[384:1],
7<4[8:3],
3,
2,
{4}1h[384:1],
8<5[8:3],
4,
3,
{4}2h[384:1],
{2}5<8[8:3]/1>4[8:3],
{4},
{8}7-5[8:1],7,
,4-8[8:1],
3,2,
1,1-5[8:1],
{8}8,7,
{4}7h[8:3],
{8},3-5[8:1],
3,6-2[8:1],
{8}7,8,
{4}8-5[8:1],
{8},2-4[8:1],
2,5-1[8:1],
{8}6,7,
{4}7-3[8:1],
{8},8,
1,5,
{4}2/6,
5-3[8:1],
7-5[8:1],
{8}4,3,
{4}2/4-7[8:1],
1-4[8:1],
{8}8,8,
7,7,
{4}6h[4:1],
1>4[4:1],
{8},5,
6,7h[8:2],
{4}5-2[8:1],
8-4[8:1],
3-8[8:1],
{8}7,6,
{4}5-1[8:1],
{16}5/2,,,3,
{8}4>1[8:1],7,
{4}7p4[8:3],
{4}3,
2,
{16}1-5[16:2],,,8,
{8}1,7,
{4}2h[8:1]/6h[8:1],
{2}1bpp4[2:2]/5bpp8[2:2],
{4},
{2},
{8},7,
{16}7,,1,8,
{4}2b/7b,
{8}1>4[8:1],6<1[8:1],
1-5[8:1],6,
{4}2-6[8:1],
{4}2>5[8:1]/5<8[8:1],
5>8[4:1]/2,
8>5[4:1],
7,
{4}6>1[4:1],
6/7,
8p4[8:1],
{8}2,2,
{4}1q5[8:1]/5<7[8:1],
5>2[8:1],
1p5[8:1]/5,
{8}2,2,
{4}3h[4:1],
{8}5<8[8:1],2>5[8:1],
5-1[8:1],2,
{4}7-4[8:1],
{4}1-5[8:1]/7,
4>1[8:1]/1<6[8:1],
4<1[4:1],
1<4[4:1],
{4}3,
1<5[4:1],
2q6[16:3]/1,
2,
{4}8<4[4:1],
{16}4x,3x,2x,1x,
{4}8xw4[8:1],
8b,
{4}2h[8:1]/6h[8:1],
{8}8-4[8:1],3>8[8:1],
8<5[8:1],3,
{4}4-8[8:1],
{4}1-5[8:1],
4>1[8:1]/1<6[8:1],
1>6[4:1]/4,
6>1[4:1],
{4}7pp4[8:3],
7,
3>6[4:1],
6<3[4:1],
{4}5pp4[4:1],
5,
1pp8[4:1],
1/8<3[4:1],
{4}6,
8<3[4:1],
3<8[4:1],
1-5[8:1],
{4}1,
4v1[8:1]/7-4[8:1],
4-2[8:1]/7,
6,
{8}7-4[8:1],6,
3-7[8:1],2,
5-1[8:1],6,
2-5[8:1],3,
{8}7<4[8:1],6,
3>1[8:1],2,
8-4[8:1],7,
2,2,
{4}5b/1b,
{8}8-4[8:1]/6,5<8[8:1],
8>3[8:1],5,
{4}4-8[8:1],
{4}1-5[8:1],
6<1[8:1]/1>4[8:1],
1<4[4:1],
4<1[4:1],
{4}2,
3>6[4:1],
6<3[4:1],
4pp3[16:5],
{4}4,
8pp7[16:5],
8/4pp5[4:1],
4,
{4}1>6[4:1],
6>1[4:1]/1,
7qq8[16:5],
7,
{4}3qq4[16:5],
3/5,
5<2[4:1],
2<5[4:1],
{4}4-8[8:1],
4,
1>4[8:1]/5<8[8:1],
1/5,
{8}3-8[8:1]/7,2,
5-8[8:1],6,
1-5[8:1],2,
{4}7,
{4}4b/8b,
6/5p1[8:1],
5<8[8:1]/1p3[8:1],
5>2[8:1],
{4}8-4[8:1]/5,
5>8[4:1]/8,
{8}8-4[8:1],7,
{4}6,
{4}7-3[8:1],
7qq5[8:1]/4,
{8}4<1[8:2]/7,3,
{4}2q5[16:5],
{4}2,
8<5[8:1],
8-3[8:1]/4>1[8:1],
4<8[4:2]/8,
{8}1,1,
2,2,
3,3,
{16}4,,4>1[16:6],5,
{8}4,5,
6,6,
7,7,
{16}8,,8<5[16:6],1,
{8}8,1,
2,2,
3,3,
{16}4,5,3-1[16:2],,
{8}6,7-4[8:1],
,1-5[8:1],
2,6-1[8:1],
7,2b,
{8}B2,B6,
{4}C,
{8},B3,
B4,E3,
{8}E5,E4,
{4},
{8},B6,
B5,E7,
{8}E5,E6,
{4},
{8},B2,
B6,B3,
{16}B7,,C,
&inote_6=
