&title=Euphorianic
&artist=SHK
&first=0
&des=パーチー
&lv_5=14
&inote_5=(140)
{16},2,3,4,5,6,7,8,1,2,3,4,5,6,7,8,1,2,36,5,4,3,2,1,8,7,6,5,4,
{128}A4f,B4f,Cf,B8f,A8f,
{20},,,,8,7,6h[4:10],,,,,,,,,,,,,,,,,,{32}1,2,3,4,,,,,,,,,,,,,4,3,2,1,8,,,,,,,,,{40},4,5,,7,8,1,2,3,4,5,,7,8,1,2,3,4,,5w1b[96#24:1],,7,8,1,2,3,4,5,,,,,,
{4},1/8,1h,1-7[4:1],7-2[4:1],2-6[4:1],6-3[4:1],3V51[8:3],5h[8:2],,2/6,2/6,7/8,8v2b[160#8:1]/4v6b[160#8:1],8bx/4bx,1v7b[160#8:1]/5v3b[160#8:1],1bx/5bx,
{20},1,2,3,4,5,6,7,8,1-5[240#8:1],2,3,4,
{24},,,,,,,,8hx[16:1]/7hx[16:1],,,4hx[16:1]/3hx[16:1],,,1hx[16:1]/2hx[16:1],,,5hx[16:1]/6hx[16:1],,,1hx[16:1]/8hx[16:1],,,5hx[16:1]/4hx[16:1],,,7hx[16:1]/6hx[16:1],,,2hx[16:1]/3hx[16:1],,,6hx[16:1]/4hx[16:1],,,5hx[16:1]/3hx[16:1],,,8hx[16:1]/2hx[16:1],,,7hx[16:4]/1hx[16:4],,,,,,,
{8}8-5[8:1],1,8,4-2[8:1],5-7[8:1],4,5pp2[8:3],2,2,
{8}2,,1b,,1/8,
{8}36,5,1-6[8:1]/4,2,1/4-8[8:1],5,1-6[8:1]/4,2,1/4>7[4:1],5,1b/4bx,4bx,4bx,,,1b2b,4b/7h[4:1],,5b-1b[8:1],4b,8b-3[8:1]/5b,7b,5b-1b[8:1]/8b,4b,8b-3[8:1]/5b,7b,5b<2b[4:1]/8b,4b,5b/8b,
,5b,5b,,,
{12},4,5,4,4,,,3-8[48#32:1]/6,,,3/6,,,3/6,,4b/5b,3b/6b-1[36#32:1],,,8/6,,,8/6,,,8/6,,4b/5b,8b-2[36#32:1]/6b,,,8/1,,,8/1,,,8/1,,4b/5b,8b/1b-7[36#32:1],,,2/1,,,2/1,,,2/1,,4b/5b,2/1,,,2/7,,,2/7,,,2/7,,4b/5b,2>4[36#32:1]/7<5[36#32:1],,,2/7,,,2/7,,,2/7,,1b/8b,2/7,,,
{12}3,,,3,,,2,,2,2,,,2,,,
{32}2-6[72#32:1],3,4,5,6,7,8,1,2,3,4,5,6,7,8,1,2,
{8}7-4[8:1],8,2-5[8:1],7,8-4[8:1],1,7-4[8:1],1,2-6[8:1],1,8-4[8:1],1,2,2,1/5,6,7-4[8:1],8,2-5[8:1],1,7-4[8:1],8,2-5[8:1],1,7-3[8:1],8,1-5[8:1],8,7,6,7/4>1[8:1],3,4,3,5-2[8:1],6,4-7[8:1],5,6-2[8:1],5,4-8[8:1],5,2,2,1/5,6,4-7[8:1],5,5-2[8:1],4,4-7[8:1],5,5-2[8:1],4,3-7[8:1],4,5-1[8:1],4,8,6,3/5<7[8:1],5-2[8:1],4,8-3[8:1],6,8,7,5-2[8:1],6,8-4[8:1],7,6-2[8:1],7,8,8,7/3,4,5-2[8:1],6,8-3[8:1],7,5-2[8:1],6,8-3[8:1],7,5-1[8:1],6,7-3[8:1],6,5,4,5/2<7[240#8:1],2,4-7[8:1],2,3-6[8:1],3,1-6[8:1],2,4-8[8:1],3,2-6[8:1],3,4,4,3/7,8,1-6[8:1],2,4-7[8:1],3,1-6[8:1],2,4-7[8:1],3,1-5[8:1],2,3-7[8:1],2,1,8,1-6[96#16:1],2,4,1-5[8:1],,1,
{16},6,5,4,3,2,1,8,7,6,5,4,3,2,1,8
{24},,,,8hbx[16:1]/7hbx[16:1],,,4hbx[16:1]/3hbx[16:1],,,1hbx[16:1]/2hbx[16:1],,,5hbx[16:1]/6hbx[16:1],,,1hbx[16:1]/8hbx[16:1],,,5hbx[16:1]/4hbx[16:1],,,7hbx[16:1]/6hbx[16:1],,,2hbx[16:1]/3hbx[16:1],,,6hbx[16:1]/4hbx[16:1],,,5hbx[16:1]/3hbx[16:1],,,8hbx[16:1]/2hbx[16:1],,,7hbx[16:4]/1hbx[16:4],
{40},,,,,,,,,,,,,,,,,,,,,,,1>4[4:6]/8,7,6,5,
{16},,,E2,,E6,,E4,,B4,,B6,,B1,,B8f,,E7f,,E1f,,B3f,,
{24},,,,,,,,,,,2-6[8:1],,,2,,,1-5[8:1],,,1,,,8-4[8:1],,,8,,,7-3[8:1],,,7,,,6-2[8:1],,,6,,,5-1[8:1],,,5,,,4-8[8:1],,,4,,,3-7[8:1],,,3,,,2-6[8:1],,,2,,,1-5[8:1],,,1,,,8-4[8:1],,,8,,,7,,,7/Ch[8:5],,,
3-8[108#8:1],,,,,,,3,
(180)
{12},,,,,,,1,2,3,4,8,7,6,5,
{12}3,4,3,4,6,5,6,5,6,
{12}1x,2,8,3,7,4,6,5,4,6,3,7,
{12}1,2,3,4,8
,7,6,5,
{12}3,4,3,4,6,5,6,5,6,
{12}1x,2,8,3,7,4,6,5,4,6,3,7,2,8,1x,2,8,3,7,4,6,5,4,6,3,7,2,8,{12}4,5,3,2,4,5,3,2,5,6,2,1,5,6,2,1,2,6,5,1,2,6,5,2,3,5,4,2,3,5,4,{12}8,8,37,37,5,3,5,3,5,3,5,3,6,2,6,2,7,1,7,1,8,8,8,8,{12}1,5,2,6,1,5,2,6,1,5,2,6,1,5,
{16}6,5,6,1b,6,5,6,1b,6,5,6,1b,6,5,6,1b,3,4,3,3,4,3,8b,3,4,3,8b,3,4,3,8b,3,4,3,8b,3,4,3,4,
6,5,6,3,4,3,4,1,7,1,7,5,6,5,6,2,8,2,8,8,7,1,6,8,7,1,6,8,7,8,7,8,7,8,7,2,1,3,8,2,1,3,8,2,1,2,1,3,8,4,7,1b,6,5,6,1b,6,5,6,1b,6,5,6,4,3,4,3,8b,3,4,3,8b,3,4,3,8b,3,4,3,8b,2,6,2,6,2,6,2,6,3,7,4,7,5,7,6,7,5,8,5,8,3,6,3,6,1,4,1,4,3,6,3,6,2,1,3,8,
{16}6/2,7/3,8/4,1/5,
{24}2/6,1/5,8/4,7/3,6/2,5/1,4/8,3hb[8:30]/7hb[8:30],
