&title=Cross Time !!
&artist=Brandy
&first=-2.35
&des=Lukazio
&lv_5=14+
&des_5=Lukazio
&inote_5=
(160){4},,,,,,,,(80)E1/1<1[8:5],
E2,E3,E4,
E5/7>2-6-3[8:5],E6,E7,E8,
E1/8>1-4<6[8:5],E2,E3,E4,
{16}B6,5/7,,,B3,4/2,,,E5,6/3,,7h[8:1],{8}Cfh[4:1],{16}8,1,
(160){4}2bh[1:1],{8}7,6-1[8:1],7,,,8x,
{4}7bh[8:7],{8}2,3,{16}2b,,,1b,,,{8}8bs4[16:3],
2,8h[8:1],,,8,8,{4}7/1,
{16}5,4,,4,,4,{8}5,5,{16}5,4,,5,{8}4,
{16}1b,8,,8,,8,{8}1,8x,{16}8,7,,7,{8}6,
{4}6xh[2:1]/Ch[8:1],{8}B8,B1,{32}E6,B6,B7,E8,,,,,E2,B2,B3,E4,{8}4xh[8:3],
6,7,{16}8x,4,8,4,7x,3,7,3,7x,8,1,2,
4x,5,,5,,5,{8}4,5x,{16}4,5,,4,{8}5,
{16}8b,1,,1,,1,{8}8,1x,{16}1,2,,2,{8}3,
{4}3h[2:1]/Ch[8:1],{8}B1,B8,{32}E4,B3,B2,E2,,,,,E8,B7,B6,E6,{8}5xh[8:3],
3,2,{16}1x,5,1,5,2x,6,2,6,2x,1,8,7,
{4}6/3,3h[8:1],{16}4b/2b,,,4b/5b,,,{8}5b/7b,
{4}8xh[8:11],B1,{8}E8,E7,,B8,
,B2,,7h[8:1],6h[8:1],5h[8:1],4h[8:1],3h[8:1],
2x,2xh[8:7],{4}B2,{8}B8,E3,,E2,
,E1,,E8,{4}Cfh[4:1],B7/B2,
8/1h[8:11],B8,{8}E2,E3,,B1,
,B7,,2h[8:1],3h[8:1],4h[8:1],5h[8:1],6h[8:1],
{4}7s3-1-6[8:5],7,7,7,
{8}7/6,8/5,1/4,2/3,{16}3x/2x,,,1/4,,,{8}7b/6b,
{16}6/5,,,4/7,,,{8}2b/1b,{16}3/4,,,2/5,,,{8}8b/7b,
{16}5/4,,,6/3,,,{8}1/8,{16}7b/B2/E2,,,3b/B6/E6,,,{8}8b/4b,
7-3[8:1],B5/E5,7,B4/E5,2-6[8:1],B5/E5,2,B4/E5,
7<4[8:1],7/B5/B4,7,2>5[8:1],2,2/6pp1[8:5],6,6/1,
2,3,4,5,A1,A8,A7,A6,
{16}2,3,4,5,6/2,1,8,7,6/2,1,8,7,6,5,4,3,
{8}2x-6[8:1],B4/E5,2,B5/E5,7-3[8:1],B4/E5,7,B5/E5,
2>5[8:1],2/B4/B5,2,7<4[8:1],7,7/3qq8[8:5],3,3/8,
7,6,5,4,3,2,1,8,
7/6,5,4/3,2,1-4[8:1]/8-5[8:1],7/2,1/8,D5f,
3v6[8:1],4,{4}3V51[4:1],{8}3,1<4[8:1],,2/1v3[8:1],
,1/5qq5[4:1],,5<3[8:3],,,4x,5x,
6>3[8:1],7>2[8:1],6,7,A3,C,A2,C,
1/5h[8:1],C,2/6h[8:1],C,3/7h[8:1],C,{4}4/8h[8:1],
{8}6v3[8:1],5,{4}6V48[4:1],{8}6,2-7[8:1],,2/6-3[8:1],
,6/5qq5[4:1],,5<3[8:3],,,4x,5x,
6v3[8:1],7,6/8v5[8:1],1,8/2v7[8:1],3,{4}2/4,
{8}5/1h[8:1],C,6/2h[8:1],C,7/3h[8:1],C,{4}8/4h[8:1],
B7/B6/Ch[2:1],B2/B3,B2/B3/E3h[4:1],B7/B6/E7h[4:1],
{8}1V35[8:1],5V71[8:1],1-5[8:1],7-3[16:1],,7,E5,E1,
{4}B2/B3/Ch[2:1],B7/B6,B7/B6/E7h[4:1],B2/B3/E3h[4:1],
{8}8V64[8:1],4V28[8:1],8-4[8:1],2-6[16:1],A8/B8,2b,,4,
{4}5/3h[8:3],{8}4<6[16:1],5,{16}E3,B3,,,{8}5,6,
{4}4/6h[2:1],{8}5>3[16:1],4,5,{16}E7,B6,{8}3/B5,2,
{16}2,6,2,7,2,8,2,1,2,3,4,5,6/3,4,5,6,
{2}7bs3[8:1]/2bz6[8:1],4/5h[8:3],
{16}5/4,4,,4,,4,{8}4,4/E6,{16}4,4,,4,{8}4,
{24}D1/E5,A8,D8,A7,D7,A6,{8}B1,B8,{2}Cf,
{16}5/4,5,,5,,5,{8}5,5/E4,{16}5,5,,5,{8}5,
{48}3b/5bh[4:3]/Cfh[4:1],B3,{4},{16},,,{48},{4}7xV13[8:1],7b,
{16},,4,4,B5,4,,4,{8}4x/B6,4,{16}4/B7,4,,4,
{8}4x/E6,{16}3,3,E7,3,,3,3x/E8,B7,{8}3,{16}3/E1,3,E8,3,
{32}3x/D8,A7,D7,A6,{16}2,2,{32}E6,B6,2`B7,E8,,,{16}2,{8}2x/7xh[8:1],2,{16}2/8xh[8:1],2,,2,
{8}2x/1bh[8:1],{16}2,8h[8:1],,1,{8}7h[8:1],5bh[8:1],{16}6,4h[8:1],,5,{8}3h[8:1],
{16}6b,5,7,4,{8}8b,2/6,{16}3b,4,2,5,{32}1b,2,3,4,5,6,7,8,
1b/A5,A4,A3,A2,A1,A8,A7,A6,{24}E5,E4,E3,E2,E1,E8,E7,E6,E5,E4,E3,E2,{16}E1,B7,B6,B5,
B4,B3,B2,B1,{12}B8,B7,B6,{8}B5,B4,B3,Cf,
(80){1}1<3<1[8:13]`2b-6v4v2b[8:13],
,8-5qq5-8[8:13]`1b-4pp4-1b[8:13],
{8},,,,,,,,(160)3/6,
2h[1:1],{4}3,3,3,
{8}3,7h[1:1],{4}6,6,{8}6,B8,
B2,3h[4:3],{4}4,4,4,
{16}3,4,2,5,1,6,8,7,1,8,2,1,{32}2,3,4,5,6,7,8,1,
{8}2b/6b,2,3,3,4,4,5,5,
6b,7,8,1,2,3,4,5,
{16}7b,2,C,2,5b,2,C,2,3b,2,C,2,1b,2,C,2,
1,2,1,2,8,3,8,3,{32}1bx,8,7,6,1bx,2,3,4,7b,6,5,4,3,2,1,8,
{8}7x-3[8:1],B5/E5,7,B4/E5,2-6[8:1],B5/E5,{4}2,
{8}5xv2[8:1],B8/E1,5,B1/E1,4v7[8:1],B8/E1,{4}4,
{8}7-3[16:1],8-2b[16:1],7,8,6-2[16:1],5-3b[16:1],6,5,
1<5[4:1],7V53b[4:1],5>1[4:1],3-1b[8:1],1,7,5,E5,
2x-6[8:1],B4/E5,2,B5/E5,7-3[8:1],B4/E5,{4}7,
{8}4xv7[8:1],B1/E1,4,B8/E1,5v2[8:1],B1/E1,{4}5,
{8}2-6[16:1],1<6b[16:1],2,1,3-7[16:1],4<7b[16:1],3,4,
8>4[4:1],2V46b[4:1],4<8[4:1],6-8b[8:1],{2}6-1[8:1],
{16}2-5[8:1],3,2,3,{8}2,{16}2>6[8:1],2h[16:1],8,1,7/2,8,{32}1,2,3,4,5,6,7,8,
{16}1bq5b[8:1],1p5[16:1],1,1,{4}1,{16}4x,,,3x,{8}3/5,4/6x,
{16}7-4[8:1],6,7,6,{8}7,{16}7<3[8:1],7h[16:1],1,8,2/7,1,{32}8,7,6,5,4,3,2,1,
{16}8bp4b[8:1],8q4[16:1],8,8,{4}8,{16}5x,,,6x,{8}6/4,5/3x,
{16}3x-7[16:1],3,,3,C,2,{8}2,2x>5b[16:1],{16}2<7[16:1],2,,2,{8}2,
{16}6x-2[16:1],6,,6,C,7,{8}7,7x<4b[16:1],{16}7>2[16:1],7,,7,{8}7,
{16}5x/B2,5,,5,B3,5,{8}5,5x/B4,{32}5,4,3,2,1,8,7,6,5,4,3,2,
{8}1b,{16}3,4,,6,{8}5,C,{16}7,8,,2,{8}1,
1/8,{16}E3,E4,,E7,{8}E6,C,E1,{16}7b-3b[8:1],1-5[16:1],8,2,
E
