&title=海馬成長痛×Mass Destruction -Reload-
&artist=ずっと真夜中でいいのに.
&first=0
&des=FallingL w/z Makoto & Nira
&clock_count=4
&lv_5=13+
&des_5=FallingL w/z Makoto & Nira
&inote_5=(140){1},
{8}5,3h[8:1],4h[8:1],3h[2:1],,,E4,,
{8}6,4h[8:1],5h[8:1],4h[2:1],,,E5,,
{8}5,3h[8:1],4h[8:1],3h[2:1],,,E6,,
{8}7,2h[8:1],1h[8:1],2h[4:1],{16},,8,1,8h[8:1],,,,
{8}4,6h[8:1],5h[8:1],6h[2:1],7,,B2,,
{8}3,5hx[8:1],4hx[8:1],5hx[2:1],7x,,C,,
{8}4,6hx[8:1],5hx[8:1],6hx[2:1],8x,,B7,,
{4}8<1[16:5],,,{16}8,1,7,,
{16}4bh[4:1]/5b,,,,7x,,,,6,5,6,4,7x,1-4[8:1],,2,
{16}4,,,,7x,,{32},5xqq4[16:3],6x,,{16},,,,7x,,8,,
{16}5<3[4:1]/6,56,,,8x,,,,6-1[32:3],6,,,8x,,,,
{16}5,4,6,2,8x,1,,2,4,3,,56,,4/8-3[16:1],,,
{16}7bh[4:1]/8b,,,,2x,,,,3,4,3,5,2x,8-5[8:1],,7,
{16}5,,,,2x,,{32},4xpp5[16:3],3x,,{16},,,,2x,,1,,
{16}4>6[4:1]/3,43,,,1x,,,,3-8[32:3],3,,,1x-5b[32:3],,,,
{2}7h[2:1],{8}5x-1[32:3],4x/6x,,,
{8}8h[16:3],1h[8:1],7h[8:1],1h[8:1],{16}6,,6,5,,5,7h[16:3],,
{8}8<5[32:3],1,2,2h[16:3],{16},4,3,4,3,,1,2,
{16}8h[8:1],,5<8[32:3],6,4h[16:3],,5,,{8}1-5[32:3],2-4[32:3],1x,2x,
{8}6-4[32:3],7,1-6[32:3],2,3h[4:1],,B4,C,
{8}7x/1h[8:1],8h[16:3],5h[16:3],6h[8:1],{16}3,,3-1[32:3],4,,7,,,
{16}5h[8:1],,8,6h[8:1],,5,7h[8:1],,4,,4-1[32:3],5,,8,,,
{16}5-1[32:3],,6,,7,,,,6-1[32:3],1,6,1,6,,,,
{32}2hx[32:3],,,3hx[32:3],,,4hx[16:3],,{8},5,4b-1b[32:3]/6b,,2b,,
{16}8h[8:1],,5,7,4h[8:1],,6,5,8-4[32:3],4,8,4,8,,,,
{16}2h[8:1],,4,3,,3,5h[8:1],,4,6,4,6,3,7,2,8,
{16}1h[8:1],,4,2,5h[8:1],,3,4,1-5[32:3],5,1,5,1,,,,
{16}6h[8:1],,8,7,2h[8:1],,1,3,{12}4x-1[32:3],5x,6x,7hx[8:1],,,
{16}1h[8:1],,5,3,1h[8:1],,4,6,1,2,3,4,6-3[32:3],7,8h[8:1],,
{16},,8,8,{12}4x,6x,2x,5x-2-4[16:3],1x,7x,5x,,,
{12}6h[4:1],,,5,5,7,1,1,4,3,3,8,
{16}1h,7,2h,6,1h,7,3h,5-8b[32:3],8q5b[8:1],,,,,,,,
{48}5bx-8[32:3]/7,4bx,3bx,2bx,,,{16},,58,,,,17,,2,4,3-1[32:3],,84,,
{8}6-8[32:3],5,1v6b[32:3],2,3V52[16:3],,5,7,
{8}1-4b[32:3],,1x/3V52[16:3],,5,7,1v4b[32:3],,
{8}1x/3pp5[8:1],,5p1[8:1],7,1p5[32:3]*v7[32:3],,,,
{16}3/4-1[32:3],,,,41,,,,82,,7,5,6-8[32:3],,15,,
{8}3-1[32:3],4,8v5b[32:3],7,6V47[16:3],,4,2,
{8}8-5b[32:3],,8x/6V47[16:3],,4,2,8v3b[32:3],,
{4}8xpp5[16:5],,{8}4h[16:1],4h[16:1],7x-2[16:1],,
{16}E2f,,,,3x,4x,,25,,25,,4,1v6[32:3],,83,,
{8}1x>4[32:3]/4h[8:1],,1xv6[32:3]/7h[8:1],,1x>4[32:3]*<7[16:1]/4h[8:1],,1x,,
{12}5x/7x,7,7,6x,6,6,5x,5,5,4hx[4:1],,,
{16}8,2,8,2,5,3,6,,7x-4[32:3]/5x-1[32:3],,,,,,,,
{16}5hx[16:3]`2x,,,4hx[16:1],,6hx[16:1],,5hx[16:1],,7hx[16:1],,6x,8xv3[32:3],,27,,
{8}8x<5[32:3]/5h[8:1],,8xv3[32:3]/2h[8:1],,8x<5[32:3]*>2[16:1]/5h[8:1],,8x,,
{16}4x`1hx[8:1],,5,2h[8:1],,6h[8:1],,4,5h[64:1]/3h[64:1],,4h[64:1]/2h[64:1],,3h[64:1]`1-5b[32:3],,2h[64:1]`8h[64:1],,
{4}7h[2:1],,5-1[32:3],,
{16}5h[8:1]/6,,8x,,5h[8:1]/4,,8x,,56,,7,8x,5,,2/8x,,
{16}4h[8:1]/3,,1x,,4h[8:1]/5x,,1x,,43,,2,1x,4,,7/1x,,
{16}3h[8:1]/4,,7x,,5h[8:1]/4,,7x,,5h[8:1]/6,,7,7x,4,,1/7x,,
{16}6h[8:1]/5,,2x,,4h[8:1]/5,,2x,,4h[8:1]/3,,2,2x,5,,8/2x,,
{16}3q8[8:1]/5,,1x,,2,,1x,,27,,5,1x,3<5[32:3],,1x/2,,
{16}6p1[8:1],,8x,,7,,8x,,72,,4,8x,6>4[32:3],,8x/7,,
{16}3q7[8:1],,2x,,1p5[8:1],,2x,,4v7[32:3],3,2x,1,8,,2x,,
{16}5/6p8[8:1],,7x,,1,,7x,,4-1b[32:3],,,,4x/5x,,,,
{16}7h[8:1]/1,,8,,6/2h[8:1],,4,,3/5-8[32:3],,4,6,5x,,7x,,
{16}5/6V47[16:3],,78,,1,,3,,5xp1[32:3],,1,1,5x,,,,
{16}4h[8:1]/1,,3,,6/4h[8:1],,8,,5/1-4[32:3],,3,7,1x,,5x,,
{16}7v6[8:1]/8,,2/6-4[32:3],,5,,3,,1xq5[32:3],,3,3,1x,,,,
{16}6/7-3[8:1],,3-7[8:1],,2,,1,,8-5[32:3],,6,1,8x,,3x,,
{16}4v1[8:1]/2,,1q6[8:1]/7,,6,,8,,7xp3[32:3],,5,5,7x,,,,
{8}4xqq1[32:15]/1x,,,6,8x>5[16:3],,,,
{16}7hx[16:1]/6x-2b[16:1],,7hx[16:1],,8h[4:1]`B2f,,,,1x,4x,3x,6,5-1[32:3],8,4,7,
{8}5bpp3[8:3],,B1,,,,B1,,
{16}1-5-2-8[16:5],5,3,7,1,8-3-1-5[16:5],,6hx[16:5],,,,,,,,,
{8}8>3[32:3],6,78,5,1>4[32:3],7,81,6,
{16}5-8[32:3],7,4,,51,,2h[8:1],,8,3,7,4,6,5,7,,
{16}2h[8:1]/1,,7,7,1h[8:1],,4,4,8,1,2-6b[8:1],3,6-4b[32:3],7,8h[8:1],,
{16},,8,8,{12}4x,6x,2x,5x-1-7-4[32:11],1x,7x,5x,,,
{12}6h[4:1],,,5<8b[32:3],5,4,1,2,2,4,4,3,
{16}1h,4,7h,3,6h,1,4h,8q5[32:3],5-8[32:3],,,,,,,,
{4}6h[4:1],{32}2,3,4,5,6,7,8,1,{4}2-7[16:1]`6-3b[16:1],2b/6b,
{48}7x-4-8[16:3]/8bx,1bx,2bx,{16}3bx,,,47,,,,1v6[32:3],,7,3,1>4b[32:3],,2,,
{8}5v2[32:3]/1,7,1>4b[32:3]/5-7[32:3],7,1v6[32:3]/5,,5,3,
{8}1>4b[32:3]/4-7[32:3],,1v6[32:3]/4,,5,3,1>4b[32:3]/3-7[32:3],,
{8}1-6-4[16:3]/3,,5,3,1h[4:1],{32}4,5,6,7,8b,,,,,,,,
{16}5-2[32:3]*-1[32:3]/6,,,,5,,,,8v3[32:3]/1,,2,6,8<5b[32:3],,7,,
{8}4v7[32:3]/8,2,8<5b[32:3]/4-2[32:3],2,8v3[32:3]/4,,4,6,
{8}8<5b[32:3]/5-2[32:3],,8v3[32:3]/5,,4,6,8<3b[8:3]`6qq2[8:3],,
{8},,,,,,E3h[4:1]/A2hf[4:1]/B2h[4:1],,
{48}4bx,5bxp1[32:3],6bxv4[16:1],{16}7bx,,,5x/6x,,,,7/1v6[32:3],,8,3,1>4b[32:3],,2,,
{8}5v2[32:3]/1,7,1>4b[32:3],7,{32}1V72[16:3]/4b,5,6,7,,,,,{8}5,3,
{8}1x>4b[32:3],,{32}1V73[16:3]/4b,5,6,7,,,,,{8}5,3,1x,,
{32}1V74[16:3]/4b,2x/5b,3x/6b,4x/7b,,,,,5,,,,3,,,,1h[4:1],,,,4,5,6,7,8b,,,,,,,,
{32}1/2,3,4,5,6,7,8,1,{16}2b/6b,,,,4/8v3[32:3],,2,5,8<5b[32:3],,7,,
{8}4v7[32:3]/8,2,8<5b[32:3],2,{32}8V27[16:3]/5b,4,3,2,,,,,{8}4,6,
{8}8x<5b[32:3],,{32}8V26[16:3]/5b,4,3,2,,,,,{8}4,6,8x-5-2b[8:5],,
{4}4-1-6[16:5],,,7x-2[16:1]`3x-6b[16:1],
{1}7bp1>4[2:1]`3bp5<8b[2:1]`Cf/E1/B8/B4/E5,
{8}1x>4[32:3]/4,2,1xv6[32:3]/5,7,1x>4[32:3]/4<7[32:3],2,1x/4x,,
{12}5x/8hx[24:1],8h[24:1],8h[24:1],6hx[24:1],6h[24:1],6h[24:1],5hx[24:1],5h[24:1],5h[24:1],3hx[24:1],3h[24:1],3h[24:1],
{16}1,2,8,3,7,4,6,5,7xp3[32:3]/4xv1[32:3],,2,,47,,,,
{48}5x/2x,6x/3x,7x/4hx[48:7],{16},,8,5,6,4,7,5,6,4,8,8v3[32:3]/5,,26,,
{8}8x<5[32:3]/5,7,8xv3[32:3]/4,2,8x<5[32:3]/5>2[32:3],7,8x/5x,,
{16}4x`1hx[8:1],,5,3h[8:1],,7h[8:1],,3,4h[64:1]/5h[64:1],,2h[64:1]/3h[64:1],,8h[64:1]`1-4b[32:3],,7h[64:1]`6h[64:1],,
{4}8h[4:1]/1,{32}5,6,7,8,1,2,3,4,{2}5p8[32:3]/8-5[32:3],
{1}6b>3[4:9]`7b<3b[8:17],
{1},
{1},
{4}7xpp8[4:1],8bx-5-8[4:1],3bh[4:1],,
{1},
E
