&title=脳味噌リジッドガール
&artist=あよ
&first=0.04
&des=幽冥猪
&clock_count=4
&lv_5=14
&des_5=
&inote_5=
(181){4},,,,7/5,
4/2,{8}4/5,2/7,,1/3,
,8/6,,1/8,{4}6/3h[4:1],C,
{8}7-5[8:1],7,3,3,{16}2h[16:3],,,3h[16:3],,,{8}4qq5[8:3],
,5,6,7,{4}7-4[8:1],8,
{8}2-4[8:1],2,6,6,{16}7h[16:3],,,6h[16:3],,,{8}5pp4[8:3],
,4,3,2,{4}2-6[8:1],6/2,
{8}3/7-4[8:1],7,2,2,{16}1h[16:3],,,2h[16:3],,,{8}3pp6[8:3],
,6,7,8,{4}8-4[8:1],1,
{8}2-5[8:1],2,7,7,{16}8h[16:3],,,7h[16:3],,,{8}6>3[8:1],
,2,1,8,7,5x/4x,5x/4x,4x/5x,
{4}3xh[4:3],4,4,5,
6h[4:3],5,5,4,
2h[4:3],4,4,6,
7h[4:3],5,{2}5v4[8:1],
{8}2,2,4,4,3x-6[8:1],2x/5x,,,7,
7,5,5,6x-3[8:1],4x/7x,,,{4}2h[4:1],
{8}1>6[4:1],1,{2}8h[4:1],
{8}7h[8:3],5,5,5,{16}4,6,4,6,3,5,3,5,
{4}2-8[8:1],2/7,{8}6-1[8:1],2,6,{16}3,3,
{8}8,7/1,2/6,2-5b[8:1]/6-4b[8:1],,Cf,,,{4}7/8-3[8:1],
4,{8}6-4[8:1],6,{4}1-5[8:1],
{8}7-4[8:1],7,{4}1-5[8:1],{8}7-3[8:1],7,{4}3,
2/1-6[8:1],5,{8}3-5[8:1],3,{4}8-4[8:1],
{8}2-5[8:1],2,{4}8-4[8:1],{8}2-6[8:1],{16}2,6,,,,,{8}8,
{16}3,4,{8}2x,{16}5,4,{8}6V42[16:3],7/5,,,1,
{16}6,5,{8}7x,{16}4,5,{8}3V57[16:3],2/4,,,8-5[8:1],
4,8x,2,1-4[8:1],5,1x,7,
{16}8,8,{8}4-2-7[4:1],,7,{4}5w1[8:1],5b,
{8}3/7,{16}6,5,{8}6<1[8:1],2,3,4,{4}5,
{8}2/6,{16}3,4,{8}3>8[8:1],7,6,5,{4}4,
{8}7/3,{16}6,5,{8}7,{16}3,4,{8}2,8,1>4[8:1],8,
{4}1<6[8:1],1-5[8:1],{8}1,8b,{4}8b,
{8}5x/6x,4xh[4:1]/7xh[4:1],,,4x/3x,5xh[4:1]/2xh[4:1],,,{4}1x-6[8:1]/8x-5[8:1],
8x-3[8:1]/1x-4[8:1],1x/8x,{8}5xh[16:1],5xh[16:1],
{1}1bs5[2:1],
{16}7/5,,,5/4,,,{8}4/2,{2}8/1,
{8}5/6,{16}3,4,{8}2,8,6/5-8[8:1],2,{4}3/5,
{8}4/3,{16}6,5,{8}7,1,3/4-1[8:1],7,{4}6/4,
{8}5/6,{16}7,8,{8}7,2,3/5,6,7/5,8,
{4}1/2-6[8:1],{8}8-4[8:1],7,1-5[8:1],2,{4}1>4[8:1]*<6[8:1],
1b,{8}7x/3x,{16}6,5,{8}7,{16}3,4,{8}2,8>5b[16:3],
4<5-7b[8:1],8,,E7f/A7/D8/E8/B7/B6/A6/D7,,,3,2,
{4}1/8-4[8:1],{8}2-5[8:1],2,6-2[8:1],6,3-7[8:1],3,
{4}8w4[8:1],8,{8}6/2,{16}3,4,3,4,3,4,
{8}2b,{16}7,5,{8}6,3,4/2-5[8:1],1,2/8,7,
6,{16}2,4,{8}3,6,5/7-4[8:1],8,7/1,2,
2b,{16}7,5,{8}6,3,4/2-5[8:1],1,2/8,7,
{4}6x-4[8:1],{8}2-6[8:1],3,8-4[8:1],7,{4}8<5[8:1]*>3[8:1],
8b,{8}6/2,{16}3,4,{8}2,{16}6,5,{8}7,1<4b[16:3],
5>4-2b[8:1],1,,E3f/A2/D2/E2/B2/B3/A3/D3,,,8,1/7-3[8:1],
,3,2>5[8:1],2,6<1[8:1],6,{4}4w8[8:1],
4,{16}2x,6,2,6,3,7,3,7,4,8,4,8,
{4}5V71[4:1],1V35[4:1],5V71[4:1],1,
{8}7xh[2:1],{16},,,,,,,,B2,B8,{4}C,
2x-7[8:1]/6x-3[8:1],6x/2x,{16}5x/1xh[16:3],,,3xh[16:3],,,{8}5x,
,7x/1x,{4}2x>4[8:1]/6x>4[8:1],6x<8[8:1]/2x<8[8:1],2bx/6bx,
7x-2[8:1]/3x-6[8:1],3x/7x,{16}4x/8xh[16:3],,,6xh[16:3],,,{8}4x,
,2x/8x,{4}3x/7xw3[8:1],{2}7x,
{4}1x-4[8:1]/5x-8[8:1],5x/1x,{16}3x/7xh[16:3],,,5xh[16:3],,,{8}3x,
,2x/8x,{4}7x-4[8:1]/3x-5[8:1],3x-8[8:1]/7x-1[8:1],3bx/7bx,
8x-5[8:1]/4x-1[8:1],4x/8x,{16}6x/2xh[16:3],,,4xh[16:3],,,{8}6x,
,7x/1x,{4}6x/2xw6[8:1],2x,{16}4x,5x,3x,6x,
{4}2-7[8:1],2/5s1[16:5],3h[8:1],2>7[4:1],
7<2[4:1],2,1-5[8:1],1/8,
7-2[8:1],7/4z8[16:5],6h[8:1],7<2[4:1],
2>7[4:1],7,8-4[8:1],8/1,
2b-4[8:1],{8}6,6,5-1b[8:1],5,8,8,
2-4[8:1],2,6,6,5-1b[8:1],5,8,8,
{16}3,,4/5,,6,,4/5,,2,,3/4,,7,,6/5,,2xh[8:1]/4xh[8:1],
,,4xh[8:1]/5xh[8:1],,,{8}5x/7x,{16}8,1,7,2,6,3,{8}5,
{16}4h[8:1]/8h[8:1],,,4h[8:1]/8h[8:1],,,{8}4/8V64[16:3],,3,{4}1,
{16}5h[8:1]/1h[8:1],,,1h[8:1]/5h[8:1],,,{8}5/1V36[16:3],,6,{4}8,
{16}3h[8:1]/7h[8:1],,,3h[8:1]/7h[8:1],,,{8}3/7V53[16:3],,2,{4}8,
{8}1-3[8:1],1-7[8:1],{4}1-5b[8:1],,,{1}2xh[4:3]/Cf,
7xh[4:3]/B3f/B4,
2xh[4:3]/Cf/B6/B5,
{32}8bx,7x,6x,5x,4x,3x,2x,1x,8bx,7x,6x,5x,4x,3x,2x,1x,8bxw4[8:1],7x,6x,5x,4x,3x,2x,1x,,,,,,,,,{8}7bx/1bx,
{16}3,4,{8}2>5[8:1],{16}1,8,{8}2,6,7/8,1,
{24}2,3,4,5/8w4[8:1],,,,,,{8}Cf/B2/B6,,,6,7,
{4}1/8-4[8:1],{8}2-5[8:1],2,6-2[8:1],6,3-7[8:1],3,
{4}8w4[8:1],8,{8}6/2,{16}3,5,3,5,3,5,
{8}1bx-3[8:1],{16}4,4,{8}1b-7[8:1],6,1b-5[8:1],5,1b,7,
8bx-6[8:1],{16}5,5,{8}8b-2[8:1],3,8b-4[8:1],4,8b,2,
1bx-3[8:1],{16}4,4,{8}1b-7[8:1],6,1b-5[8:1],5,1b,8,
{24}7x,6,5,3xh[8:1],,,8x,7,6,3xh[8:1],,,1xw5[8:1],8x,7x,2x,,,{4}1,
{8}3/7,{16}6,5,{8}7<4[8:1],{16}8,1,{8}7,3,2/1,8,
{24}7,6,5,4/1w5[8:1],,,,,,{8}Cf/B7/B3,,,1,8/2-6[8:1],
,6,7<4[8:1],7,3>8[8:1],3,{4}5w1[8:1],
5,{16}7x,3,7,3,6,2,6,2,5,1,5,1,
{2}6>7[4:3],2,
{8}3,3<2[8:5],,7,{2}7,
{4}4xw8[8:1],4b,5xw1[8:1],5b,
{16}7x,3,7,3,6,2,6,2,{32}5,4,3,2,1,8,7,6,{4}5b/4b,
8<4[4:1],4>8[4:1],8<4[4:1],4,
{8}A3h[2:1],{16},,,,,,,,B7,E2,{4}Cf,
{8}2>5[8:1],2,6,6,{16}7h[16:3],,,5h[16:3],,,{8}4pp8[8:3],
,3,2,1,{4}1-5[8:1],1/8,
{8}7<4[8:1],7,3,3,{16}2h[16:3],,,4h[16:3],,,{8}5qq1[8:3],
,6,7,8,{4}8-4[8:1],2/8,
{8}3b<6[8:1],3,7,7,{16}8h[16:3],,,6h[16:3],,,{8}4pp1[8:3],
,1,2,3,{4}3-7[8:1],7/3,
{8}6b>3[8:1],6,2,2,{16}1h[16:3],,,3h[16:3],,,{8}5qq4[16:5],
,8,7,6,6,{16}4,5,4,5,3,6,
{8}2bpp1<4[16:11],,,,,,,B8,
,7/3,6-3[8:1]/2-7[8:1],1/5,{2}6b/2b,
E
