&title=RE;DIEIN
&artist=HAYAKO
&first=-0.34
&des_5=CeNx
&lv_5=14
&des=CeNx
&inote_5=(222),,,,,,,,,,,,
{8}3,3h[8:2],,5h[8:2],,3,E4,,E5,,E6,,
6,6h[8:2],,4h[8:2],,6,E6,,E5,,E4,,
2,2h[8:2],,8h[8:2],,2,E2,,E1,,E8,,
6,5,6,7,6,,3,4,3,2,3,,
8,8h[8:2],,7h[8:2],,6,6h[8:2],,5h[8:2],,4h[8:2],,
1,1h[8:2],,2h[8:2],,3,3h[8:2],,4h[8:2],,5h[8:2],,
8,8h[8:2],,7h[8:2],,6,6h[8:2],,5h[8:2],,4V25-1-6-8[4:3],,,,,,,,
Ch[4:2],,,,,,6h[8:1],4,6h[8:1],4,6h[8:1],,7h[8:1],5,7h[8:1],5,7h[8:1],,8h[8:1],6,8h[8:1],,8h[8:1]/7,,1h[8:1]/2-6-4[8:3],,1h[8:1],,1h[8:1],,
3h[8:1],,3h[8:1],5,3h[8:1],4,2h[8:1],,2h[8:1],4,2h[8:1],3,3h[8:1]/2,,4h[8:1]/3,,5h[8:1]/4,,6h[8:1]/5>1[8:3],,6h[8:1],,6h[8:1],,
5h[8:1],3,5h[8:1],4,5h[8:1],,6h[8:1],5,6h[8:1],7,6h[8:1],,7h[8:1],8,7h[8:1],,7h[8:1]/2,,8h[8:1]/1-5-3[8:3],,8h[8:1],,8h[8:1],,
2h[8:1],,2h[8:1],1,2h[8:1],8,1h[8:1],,1h[8:1],8,1h[8:1],7,8h[8:1]/6h[8:1],,
4h[8:1]/6h[8:1],,4h[8:1]/2h[8:1],,8w4[8:2]/2,,,,,,
37,,36,,35,,3,4,3-5[8:1],2,3,,
62,,63,,64,,6,5,6-4[8:1],7,6,,
25,,2xh[4:1]/6,,7,,1b/8b,,2,7,3,6,4q5[4:3],,,,,,5<4[4:3],,,,,,
7h[4:3],,,,5,,5h[4:3],,,,4,,4h[4:3],,3,,2,,1q6[8:3]*>5[8:3],,,,,,
7qq8[8:3],,8,,1>7[2:1],,2h[4:2],,,,,,
2pp1[8:3],,1,,8<2[2:1],,7h[4:1],,,,,8,8h[2:3],,E7,,E6,,E5,,E4,,E3,,E2h[4:5],,,,,,,,,,,,
5x-8[4:10]/1x-4[4:10],,,,,,,,,,,,,,,,,,,,,,,,
6-3[1:1]/2-7[1:1],,,,,,,,,,,,
3,4,3,2,3,,6,5,6,7,6,,
2,2h[8:2]/1,,5h[8:2],,3,3/E6,,4/E7,,5/E8,,
7,7h[8:2]/1,,5h[8:2],,7,7/E5,,6/E4,,5/E3,,
2,2h[8:2]/4,,6h[8:2],,3,3/E7,,4/E8,,5/E1,,
6,5,6,7,6,,3,4,3,2,3,,
15,1h[8:1],5,2h[8:1],6-3-8-5[4:3],3h[8:1],6,,C,,E2,,
2,2h[8:1],6,3h[8:1],7-4-1-6[4:3],4h[8:1],7,,C,,E3,,
5,5,46,46,37,37,28,28,17,17,26,26,Ch[16:26],,,,,,,,,,,,E3h[8:1]/E7h[8:1]/B2h[8:1]/B3h[8:1]/B6h[8:1]/B7h[8:1],,,,,,,,,,,,
{24}2x/8b,3x,4x,{8}5xh[8:1],2,3,4>8[16:3]/2,5,46,,7,6,5>6[2:1]/7,4,3/5,,4,3,2,,
4b-7[8:1],,4b-1[8:1],,4b,,{24}7bx,6x,5x,{8}4xh[8:1],7,6,5<8[8:1]/7,4,53,,2,3,4<3[2:1]/2,5,6/4,,5,6,7,,3-8[8:1]/7-4[8:1],,37,,1b/5b,,
2-6V48[2:1],,6,,8,,7-3V51[2:1],,3,,1,,2V46[4:1],,6V82[4:1],,2,,5b<8[8:1],,5b>2[8:1],,5b,,
8<4[4:1],,4p6[4:1],3,2,,1>5[4:1],,5,6,7,,{32}1hx[8:1]/8b,7,6,5,4,,,,,,,,8hx[8:1]/1b,2,3,4,5,,,,,,,,{8}7qq8[4:1]/3qq4[4:1],,,,,,
{24}8x/4b,1x,2x,{8}3xh[8:1],6,7,8<5[8:1]/6,1,28,,3,4,5qq1[2:1]/3,6,7/5,,8,7,6,,2b-5[8:1],,2b-7[8:1],,2b,,{24}3bx,4x,5x,{8}6xh[8:1],1,2,3-1[8:1]/1,4,53,,8,7,6pp2[2:1]/8,5,4/6,,3,4,5,,5-2[8:1]/1-6[8:1],,51,,7b/3b,,
E4h[4:3],,,,,,B3h[4:3],,,,,,B2h[4:3],,,,,,E2,,,,,,
6>2[4:3],,,,,,2<6[4:3],,,,,,6V48-6[2:2],,,,,,,,,,,,
E6h[4:3],,,,,,B6h[4:3],,,,,,B7h[4:3],,,,,,E8,,,,,,
2>3<4<5<6b[4:3],,,,,,6<7>8>1>2b[4:3],,,,,,Ch[4:3]f,,,,,,{64}B7,B3,E7,E3,D7,D3,,,{8},,,,,
(230)7b-4[8:1],7,8b-3[8:1],8,6b-1[8:1],6,5b-2[8:1],5,8b,8h[8:1],3b,3h[8:1],1b-6[8:1],1,2b-5[8:1],2,4b-7[8:1],4,3b-8[8:1],3,6b,6h[8:1],{16}4b,3,2,1,{8}8b-3[8:1],8,7b-4[8:1],7,5b-2[8:1],5,6b-1[8:1],6,3b,3h[8:1],8b,8h[8:1],1b-6[8:1],1,3b-8[8:1],3,5bqq1[2:1],5,,,,,,,
7b-4[8:1],7,8b-3[8:1],8,6b-3[8:1],6,7b-2[8:1],7,5bv6[8:1],5,,,
2b-5[8:1],2,1b-6[8:1],1,3b-6[8:1],3,2b-7[8:1],2,4bv3[8:1],4,,,
{16}7b,8,6,1,7bv8[8:1],,,,,,,,2b,1,3,8,2bv1[8:1],,,,,,,,
7b/8b,,78,,5b/6b,,56,,4b/3b,,43,,2bx,1bx,2bx,,7bx,8bx,7bx,,Cf,,,,
(222)6x-4[16:6],,,,,,4xqq2[16:10],,,,,,B3,,,,,,,,3,,,,
3-5[16:6],,,,,,5pp7[16:10],,,,,,B6,,,,,,,,6,,,,
6>4[16:6],,,,,,4qq2[16:10],,,,,,B3,,,,,,,,3,,,,
3h[4:1],,,,5h[4:1],,,,4h[4:3],,,,D6,D5,D4,D3,D2,D1,D8,D7,D6f/A5/A6,,,,
{8}2,2-6[8:1],,2/7-3-7[4:1],,2,2<3b[8:4]/Cf,,,,,,
7,7-3[8:1],,7/1-5-1[4:1],,6,6<5b[8:4]/Cf,,,,,,
2,2-6[8:1],,2/8-4-8[4:1],,3,3>4b[8:4]/Cf,,,,,,
7,7-3[8:1],,7/1,,2,2v5[8:1]/6-1[8:1],,26,,8b/4b,,
{16}8,7,6,5,E1,E8,E7,E6,E5h[4:1],,,,
7,6,5,4,E8,E7,E6,E5,E4h[4:1],,,,
6,5,4,3,D6,D5,D4,D3,D2h[4:1],,,,4,3,2,1,D4/8,D3/7,D2/6,D1/5,8xq8[4:5]/4q4[4:5],,,,{8}4b/8b,,,,,,,,,,,,8h[4:1],,7h[4:1],,6h[4:1],,5h[4:1],,4h[4:2],,,1,1h[4:3],,,,,,8,81,81,81,7b/2b,,
(230)7,7-4[8:1]/1,,7/2-5[8:1],,8>3[8:1]/2,,84,,5,87,,
2,2-5[8:1]/8,,2/7-4[8:1],,1<6[8:1]/7,,15,,4,12,,
87,8>3[8:1]/7,,{24}8/7bx,6x,5x,,,,1>4[8:1]/7xb,6x,5x,,,,1/6xb,5x,4x,,,,28,,,28,,,,,,
{8}12,1<6[8:1]/2,,{24}1/2bx,3x,4x,,,,8,,,{24}8hb[8:1]/1bx,2,3,4,,,8hb[8:1]/7bx,6,5,4,,,{32}1bx,28,37,46,5,,,,,
E
