&title=Take On The H.E.A.T.!!!
&artist=Supa7onyz
&first=0
&des_5=哈喽呀也是成功在ddl之前交稿了,我这个是神曲神谱敢拉闸我的就没基基
&lv_5=13
&clock_count=4
&inote_5=(147){4},,,,4h[16:3],4h[16:3],4-1[8:1],5/4b,
{2}6-8[8:1]/4h[4:1],5-1[8:1]/4h[4:1],4-2[8:1]/5h[4:1],{8}1pp5[8:5]/6,6,6,,
{8}6-8[8:1],,,,5/4-2[8:1],5h[8:1],,,{16}5-1[8:1],,,4xh[16:1]/5x,{8},,2v4[8:1]/8v6b[8:1],3/7,{32}2/8b,Cf,,,,,,,
{8}3x-1[8:1]/5xh[16:3],,,,4-8[8:1]/5,6,5/4,,5-7[8:1]/4h[16:3],,,,8qq4[8:5]/3-1[8:1],2,3b,,
{16}1-3[8:1],,,1x,{8},,3/5^8b[8:1],6,5/3,,4>8[4:1],,8>4b[8:1],,6-2[8:1]*-1[8:1],,A6f,,
{8}4x-6[8:1]/8x,4x/8xV62^5b[8:3],,,E1,E8,E7,,
6x-4[8:1]/2x,6x/2xV48^5b[8:3],,,E1,E2,E3,,
2x-4[8:1]/7x,2x/7x-5-1^6b[8:3],,,E4,E3,E2,,
5x-7[8:1]/2x,5x/2x-8-4^1b[8:3],,,A7f,A6f,A5f,,
{8}1,1,2/8-4[8:1],2,3/8-6[8:1],3,8/2,2h[16:1],
1/5,5,4/1-3[8:1],4,1-5[8:1]/5,5,6/1,7h[16:1],
8h[12:1],7h[12:1],6h[12:1],5h[12:1],4h[12:1],3h[12:1],2h[12:1],1h[12:1],C,C,C,C,Ch[8:1],{32}B2/B3/B6/B7,E3,E7,D3f,{4}D7f,
3xv8[8:1]/7x-4[8:1],3/7,{16}1,5,,2/6,{8}2-5[8:1]/6-1[8:1],3/7,{4}2x-7[8:1]/6x-3[8:1],6x>8[4:1],
{24}A5,A4,A3,A2,A1,A8,{4}5xw1b[8:1],5-1^6[8:1]*-1^4[8:1],A8/A2,{16}5,4,,6,5,,4h[8:1],,6h[8:1],,
{16}4,6,5,6,5,6,3,5,4,5,{4}3,1^4[8:1],5/1-5^8b[4:1],1/2^5[8:1],2-6[8:1],3x^8[8:1],4/3^6b[8:1],3-7b[8:1]/2,,
{8}1/8,2/7,E4/B4/B5/E6,2/7,1-5pp7[8:1]/8-4qq2[8:1],2/7,,,{16}6xh[4:2]/3xh[8:1],,,3xh[8:1],,,3x,,{4}3bx<2b[4:1],Cf,
{8}5-1[8:1],4/6,5,,4-8[8:1],5/3,4,5-7[8:1],1-3[8:1],,,8-6[8:1],4-2[8:1],,,,5<3[4:1],,3>5[4:1],4,
{4}5-8-2[4:1],3h[8:1],3<1[4:1],C,6-3b[8:1],{32}E6f,B5,B4,E4,{8},2-4[8:1],,5/2-5[8:1],6,
{4}2-6[8:1]/6,7^2[8:1],4-8[8:1],{8}5-1[8:1],6,3>6b[8:1],,,,2/1,3/8,E5/B5/B6/E7,3/8,2/1,3/8,E5/B5/B6/E7,3/8,
{16}1xh[2:1]/2xbh[8:1],,,2bxh[8:1],{8},2bx,2-5b[8:1]*-6b[8:1],8/3,Cf,,
{1}7x>5qq2<6pp1[2:7]/4xh[4:15],,,,
{2}4/8,{16}7h[8:1]/5h[8:1],,,4h[8:1]/6h[8:1],,,3/5,,{1}4h[4:3]/2qq5[4:2],
{2}5/1,{16}2h[8:1]/4h[8:1],,,5h[8:1]/3h[8:1],,,6/4,,{4}5h[4:2]/7pp4[4:2],,,2b,
{2}4-2[8:1],6-4[8:1],8-6[8:1],{8}2-4[8:1]*-8[8:1],3/1,,,
{2}5-7[8:1],3-5[8:1],1-3[8:1],{8}7-5b[8:1]*-1b[8:1],,7b,,
1x/5x,2,3/6,7,8/5,4,3/6,2,1/4,5,6/2,3,{2}7-3[8:1]/3h[8:1],8qq5[2:1]/4qq1[2:1],,{4}6qq3b[2:1]/2qq7b[2:1],2b/6b,,,
{8}8-6[8:1]/4h[4:1],,8,,8-6[8:1]/3,3,3/8,,
2-4[8:1]/5h[4:1],,2,,2-4[8:1]/6,6,6/2,,
7-5[8:1]/4h[4:1],,7,,7-5[8:1]/3,3,2/7,,
1-3[8:1]/4h[4:1],,1,,1-3[8:1]/4,4,5/1,,
2h[8:1]/6h[16:1],6h[16:1],7h[16:1],7h[16:1],8h[16:1],8h[16:1],1h[16:1],1h[16:1],
1h[8:1]/2h[16:1],2h[16:1],3h[16:1],3h[16:1],4h[16:1],4h[16:1],5h[16:1],5h[16:1],
{32}4,3,2,1,8,7,6,5,4,3,2,1,8,7,6,5,4,3,2,1,8,7,6,5,4,3,2,1,8,7,6,5,
{8}4xh[12:1],4xh[12:1],4xh[12:1],4x,4x-8[8:1]/5x-1[8:1],3x/6x,D5/A4/A5,,
{64}1bxp8b[4:3]/8bx<1b[4:3],E2f,E8f,B2f/B7f,Cf,B3f,B6f,E4f/E6f,{16},,{1},{8}1-5pp7b[8:1]/8-4qq2b[8:1],2/7,,,Ch[8:1],,
3/5,1,4/6,8,{16}3,5,2x,,4/6,,7,,2,4,3,5,4,6,5,7,1,,1,,
{4}2-4b[8:1]/8-4b[8:1],8-6[8:1]/2-6[8:1],2-4[8:1]/8-4[8:1],8^5[8:1]/2,
{8}8/4,2,8^3[8:1],,5^8[8:1],6,5/2^5[8:1],1,2/7,,5/6,4/7,E3/B2/B1/E1,4/7,5/6,4/7,E3/B2/B1/E1,4/7,
{16}6h[4:2]/5h[8:1],,,5h[8:1],,,5,,{4}5>7[4:1],,{8}6-2[8:1],5/7,6,,3-7[8:1],4/2,3-8[8:1],5,3-5[8:1],6<3>6[2:1],
{8}3,,,,,,4-1[8:1]*-8[8:1],3/5,4,,{24}6,,6,4,,4,5,,5,3,,3,4,,4,2,,2,
{8}4,3-8[8:1],2/4-7b[8:1],,,,2-6[8:1]/6-1[8:1],1-5[8:1],,,2-6b[8:1]*-5b[8:1],3,2bx,,7-5[8:1]/4-8[8:1],8-3[8:1],,,5w1b[8:1],3/7,A5f,,
{16}7,6,3,4,7,6,3,4,6,5,2,3,6,5,2,3,
{8}4^1[8:1],5,7^4[8:1],8,2^7[8:1],3,5^2[8:1],,
{64}6xb<5b[4:7]*p5b[4:7],A5f,A4f,A3f,A2f,
E
