&title=Returns
&artist=Poppin'Party
&first=0.62
&des=Leowang
&lv_5=13+
&inote_5=(92.5)
{4},,{8},,,,
{16}8h[16:3],,1,2h[16:3],,,7,,
6h[16:3],,4,3h[16:5],,,,,
5,,{32}4>1[8:1],,B2,B1,{16}6v3[8:1],5,4,,6<1[8:1],,2,,6,,3,,
{16}1h[16:3],,8,7h[16:3],,,2,,
3h[16:3],,5,6h[16:5],,,,,
4,,{32}5<8[8:1],,B7,B8,{16}3v6[8:1],4,5,,3>8[8:1],,7,,3,,6,,
{16},,2,2,2-4<5[8:1],,8,7,6-8>1[8:1],,6,6,,,4,3,2h[16:3],,1,1h[16:3],,,3,4,{8}5,E2/B2,4,E8/B7,
{16},,7,,7-5>4[8:1],,1,2,3-1<8[8:1],,3,3,,,5,6,7h[16:3],,8,8h[16:3],,,6,5,{8}4v2[8:1],,{16}5v7[8:1],B6,B5,E5,
{16}1,E2,E3,E4,
E5,E6,1,E1,
E8,E7,E6,E5,
1,2x,3x,4x,
{16}8,E8,E7,E6,
E5,E4,8,E1,
E2,E3,E4,E5,
8,7x,6x,5x,
{16}1b,7,5,6,
4,5,1b,5,
3,6,4,7,
1b,2,3,4,
{16}8b,2,4,3,
5,4,8b,4,
6,3,5,2,
8b,7,6,5,
{16}2-8[12:1],,3,4,,,7,,
2-7[8:1],,4,5,,,6,,
2-6[8:1],,8,7,,,5v8[8:1],,
5,,5/4v6[8:1],,4,,4,,
{16}7-1[12:1],,6,5,,,2,,
7-2[8:1],,5,4,,,3,,
7-3[8:1],,1,2,,,4v1[8:1],,
4,,4/5v3[8:1],,5,,5,,
{16},,2,1,2-5[8:1],,3,4,2,,1,1h[16:3],,,6-1[8:1],,4/3,,6>3[8:1],5,,,6,,2-7[8:1]*v5[8:1],,,,2,,,,
{16}8/7,6,6,8/7,8/7,5,8/7,8/7,
2,8/7,,6,1/2,{32}3x,4x,5x,6x,7x,8x,
{16}1xb/5xb,,5/3,3,6/4,6,5/3,3,
6/4,6,7/5,7,8/6,{32}7,6,{16}5/4,3,
{16}8/2-4[8:1],,5,,2,1,1,1,
(71){16}8-4[8:1],4,7,3,8-5-7[4:1],,1,,
(61){16}8/1-4-2-8[4:1],,,,1,,,,
(45){16}7h[4:2],,,,6h[4:1],,,,
(92.5){16},,1/2pp5[4:1],2,1/3,,2/8p4[16:1],7,,,8-6[16:1],,1-5[16:1],,8,,1,,6,6h[16:3],,,5,5h[16:3],,,4>6[8:1],,6b-2-4b[8:1],,4b,,
{16}C,,1<6[8:1],2,3,,1/4,3h[16:7],,,5-8[16:1],,B4/B3,,5,,2,,7/1,7h[16:3],,,8,,1bv6b[16:1]/3h[16:4],,,,1b,2b,,,
{16},,8/7qq4[4:1],7,8/6,,7/1q5[16:1],2,,,1-3[16:1],,8-4[16:1],,1,,8,,3,3h[16:3],,,4,4h[16:3],,,5<3[8:1],,3b-7-5b[8:1],,5b,,
{16}C,,8>3[8:1],7,6,,8/5,6h[16:7],,,4-1[16:1],,B5/B6,,4,,{12}8/Cf,3/Cf,2b/6b,1/Cf,6/Cf,7b/3b,{32}1xb,2x,3x,4x,5x/E8/B7/B8,,8bx,7x,6x,5x,4x/E2/B2/B1,,1xb/5xb,2x/6x,3x/7x,4x/8x,
{16}1h[16:3],,2-7[16:1],3h[16:3],,,2-6[16:1],4h[16:3],,,2,5h[16:3],,,1-6>4-2<1[16:6],,8h[4:1],,,,,,7<3<7[4:1],6,
{16},,3,,2,,2,1,8b,,7-4[16:1],6,,,7/1,2,3b,,4-1[16:1],5,,,4b/6b,,
{16}7,8,1/6,,2,1,8/3,,4-8-4[8:1],8,6,2,4,,,,
{16}5b>2[16:2],6,7,,8,7,6,,2-5[16:1],1,8,7,6p3[4:1],7,8,1,
{16}2-7[16:1]/6,,,,2-5[16:1],,,,2/8b-5b[16:1],,1,,8b,,1,,
{12}3b/4b,,,7/8-4[12:1],1,2,8b/3b,,,2/1-5[12:1],8,7,1b/6b-2[12:1],,,6/4>4[4:1],4,4,4b-6<7-1>2-4b[4:1],,,C,,,
{16}5h[16:3],,4,3h[16:3],,,6,,
7h[16:3],,1,2h[16:5],,,,,
8,,{32}1>4[8:1],,B3,B4,{16}7v2[8:1],8,1,,7<4[8:1],,3,,7,,2,,
{16}4h[16:3],,5,6h[16:3],,,3,,
2h[16:3],,8,7h[16:5],,,,,
1,,{32}8<5[8:1],,B6,B5,{16}2v7[8:1],1,8,,2>5[8:1],,6,,2,,7,,
{4}6-2-8-5[4:1],6,4-7>1-6[4:1],4,8-6-2-4[4:1],8,1-4<6-2[4:1],
{16}1,,,,6h[4:6],,,,,,4pp4qq4[4:4],4,
,,,,,,,,
{4},,
{8},,B1,B2,{16}B8/B7,,3/E6,B6,,,6/E4,B3,,,2/E8,B7,,,7/E2,B2/Cfh[4:2],{4},{16},,4p7<6p1<8p3>2p5>4[4:10],4,{4},,,,,,,,,,,,C,,
