&title=Scarlet Death
&artist=lexycat
&first=0
&des=杪秋AUT vs D
&des_5=杪秋AUT vs paltr
&lv_5=14+
&inote_5=(210){4},,,,,,,,,,,,{1}Ch[2:25],
,B8h[1:8],
,B1h[1:6],
,B5h[1:5],
,B4h[1:4],
,,,,{4}6h[8:5],
{8}4,4,,3,,8,
{4}8-4[8:1],1-5[8:1],,,
3h[8:5],{8}5,5,,7,1,1,
{16}2,4,{8}3,{16}7,5,{8}6,{16}3-6[8:1],4,3,,,,,,
{8}7/8,,8/1,8/1-5[8:1],,1/2,,3,
{4}3h[16:1]/6p5[4:3],3h[16:1],2h[16:1],2h[8:1],
1,{8}8/2,8/2,,7/3,{4}3/7,
{24}B7,B6,{12}B5,,{4}1h[8:1],{24}B2,B3,B4,{8}8xh[8:1],{4},
{8}3h[4:1],,5,5,,6,,1,
{4}1-5[8:1],8-4[8:1],,,
6h[8:5],{8}4,4,,2,8,8,
{16}7,5,{8}6,{16}2,4,{8}3,{16}6>3[8:1],5,6,,,,,,
{8}2/1,,1/8,1/8-4[8:1],,8/7,,6,
{4}6h[16:1]/3q4[4:3],6h[16:1],7h[16:1],7h[8:1],
8,{8}1/7,1/7,,2/6,{4}6/2,
{24}B2,B3,{12}B4,,{4}8h[8:1],{24}B7,B6,B5,{8}1xh[8:1],{4},
{8}8/2,{16}6,5,{8}6,8/7,,1/2,,8/7,
{16}1x,2x,3x,4x,1xv4[4:1]*v6[4:1],2x,3x,4x,{2}1,
{8}7/3,{16}2,8,{8}2,1p5[8:1]*q5[8:1],,1,,6,
1-7[8:1],4,1-3[8:1],6,1-5[8:1],4,{4}1,
{8}8/3,{16}2,1,{8}2,7h[16:1]/3h[16:1],,6h[16:1]/4h[16:1],,1,
{24}1x/E7,2x,{12}3x,,{4}E8,{24}8x/E3,7x,{12}6x,,{4}1h[8:1],
{8}8-6[8:1],1-3[8:1],8-4[8:1],1-5[8:1],8<6[8:1],1>3[8:1],8,1,
{4}5h[8:1],{8}6/4,6/4,,8/2,{4}8/2,
{8}1/7,{16}3,4,{8}3,1/2,,8/7,,1/2,
{16}8x,7x,6x,5x,8xv5<7[8:3]*v3>1[8:3],7x,6x,5x,{2}8,
{8}2/6,{16}7,1,{8}7,8q4[8:1]*p4[8:1],,8,,3,
8-2[8:1],5,8-6[8:1],3,8-4[8:1],5,{4}8,
{8}1/6,{16}7,8,{8}7,2h[16:1]/6h[16:1],,3h[16:1]/5h[16:1],,8,
{24}8x/E3,7x,{12}6x,,{4}E2,{24}1x/E7,2x,{12}3x,,{4}8h[8:1],
{8}1-3[8:1],8-6[8:1],1-5[8:1],8-4[8:1],1>3[8:1],8<6[8:1],1,8,
{4}4h[8:1],{8}3/5,3/5,,1/7,{4}1/7,
{8}8-4[8:1],4-8b[8:1],{4}8,{8}1-4[8:1]*-6[8:1],2,{4}1,
{16}E4,B3,B2,E2,E6,B6,B7,E8,1x-5[8:1],8x,2,7,{4}1b,
{8}7-5[8:1],5-1[8:1],{4}7,{8}2-4[8:1],4-8[8:1],{4}2,
{16}7,6,5,4,1,2,3,4,1,8,7,6,{4}5b/2b,
7-4[8:1]/3-8[8:1],3/7,1-4[8:1]/5-8[8:1],1/5,
{16}7,3,7,3,6,2,6,2,5,1,6,2,7,3,8,4,
1x,2,3,4,2x,3,4,5,8x,7,6,5,7x,6,5,4,
7x,3,7,3,8x,2,8,2,{4}1xw5[8:1],1bx,
{8}1-5[8:1],2-4[8:1],{4},{16}6,5,{8}6,{16}3,4,{8}3,
8-6[8:1],1-5[8:1],{4},{16}7,8,{8}7,{16}2,1,{8}2,
4-7[8:1],3-8[8:1],{4},{16}6,5,{8}6,{16}3,4,{8}3,
6-3[8:1],3,{4}6,1-5[8:1],1,
{8}7-5[8:1],8-4[8:1],{4},{16}7,6,{8}5,{16}2,3,{8}4,
8-4[8:1],1-3[8:1],{4},{16}5,6,{8}7,{16}4,3,{8}2,
{8}7h[4:1]/1h[4:1],,,2h[4:1]/8h[4:1],,,{16}1,8,1,7,1,6,1,5,
{4}1bs5[8:3],7b-3b[8:1],{4},{1}6bh[4:5]/4bh[4:5],
{2},{16}3,7,3,7,2,8,2,8,
{8}1b,{16}1-5[8:1],8/2,{8}7/3,1x-7[8:1]*-3[8:1],,1,{4},{16}4,
3,2,1,5,6,7,8,{32}3,4,5,6,7,8,1,2,{4}3b-7[8:1],
{16}3/5,,,,{8}4,8-2[8:1]/4-6[8:1],,8/4,,7/3,
{4}3h[24:5]/7h[24:5],{24}4x/8x,5x/1x,,,,,1x/5x,4x/8x,3x/7x,2x/6x,,,{8}5/1,{4}1/5,
{16}8/4,1/5,{8}2/6,3bh[8:1]/7bh[8:1],,2bh[8:1]/6bh[8:1],
,{16}6-8[8:1],4,{8}6,6/5h[8:1],,{16}2-4[8:1],1,{8}2,2/1h[8:1],,,
{8}6-8-3[4:1],6,3-1-6[4:1],3,4,4,5,5,
{4}1-5[8:1],{8}1w5b[8:1],,1,,7/3,
{4}3/7,{16}8-4[8:1],1/7,{8}2/6,8x-2[8:1]*-6[8:1],,8,{4},{16}5,
6,7,8,4,3,2,1,{32}6,5,4,3,2,1,8,7,{4}6b-2[8:1],
{16}6/4,,,,{8}5,1-7[8:1]/5-3[8:1],,1/5,,2/6,
{4}6h[24:5]/2h[24:5],{24}5x/1x,4x/8x,,,,,8x/4x,5x/1x,6x/2x,7x/3x,,,{8}4/8,{4}8/4,
{16}1/5,8/4,{8}7/3,6bh[8:1]/2bh[8:1],,7bh[8:1]/3bh[8:1],,7/3,
{16}E2,E3,E4,E5,E8,E7,E6,E5,{32}1,2,3,4,5,6,7,8,{4}1-5<5b[1:1],
{1}E7h[4:3],
{4}8-6[8:1],4-2[8:1]/8-2b[8:1],8/4,
{8},,8v5b[8:1],,8,1>3[8:1]*-7[8:1],,1,,6,
{16}1/2,,8,7,6,,1,2,3,,{32}5,6,7,8,1/3,,,,,,,,
{4}2-4[8:1],{8}2,8-6[8:1],,8,4,4,
{16}2-5[8:1],,{8},2/8-4[8:1],,1/8,,2,
{4}1>4[4:1],{8}7,8<5[4:1],,2,{4}1h[8:1],{8}1,
{8}1-3[8:1],8-4[8:1],1-5[8:1],8V63b[4:1],1,8,,2,
{8}2V86[4:1],,6-1[8:1],5,,5,,4,
{4}1-3[8:1],1-7b[8:1]*-5b[8:1],1,,
{8}1v4b[8:1],,1,8<6[8:1]*v2[8:1],,8,,1,
{16}8,,1,2,3,,7,6,5,,{32}4,3,2,1,8/6,,,,,,,,
{4}7-5[8:1],{8}7,1-3[8:1],,1,5,5,
{16}7-4[8:1],,{8},7/1-5[8:1],,8/1,,7,
{4}8<5[8:1],{8}2,1>4[8:1],,7,{4}8h[8:1],{8}8,
{8}8-6[8:1],1-5[8:1],8-4[8:1],1V36b[4:1],8,1,,7,
{4}7<4[4:1],7,3>8[4:1],3,
7-5-3[4:1],3-1-7[4:1],7-3[4:1],,
1-5[8:1],{8}1,7-4[8:1],,7,{4}2<7[4:1],
7-3[4:1],3<6[4:1],6,,
{4}3>8[4:1],3,7<4[4:1],7,
3-1-7[4:1],7-5-3[4:1],3-7[4:1],,
5-1[8:1],{8}5,3-8[8:1],,3,{4}6>3[4:1],
3-7[4:1],7-2[4:1]*-4[4:1],,,
{8}1b,{16}5,3,{4}5,{8}2b-6[8:1],{16}1,7,{4}2,
{8}7b,{16}1,8,{4}1,{8}5b-1[8:1],{16}3,3,{4}5,
{16}2,3,4,5,8,7,6,5,{8}B1/B2,B6/B5,E3/B3,B7/E7,
{4}1-3[8:1]*-4[8:1],1-7[8:1]*-6[8:1],1-5[8:1],1b,
{8}8b,{16}7,1,{4}7,{8}2b-6[8:1],{16}1,7,{4}2,
{8}7b,{16}1,8,{4}1,{8}5b-1[8:1],{16}3,3,{4}5,
{16}2,8,2,8,3,7,3,7,{8}B1/B2,B6/B5,E3/B3,B7/E7,
{4}1bs5b[8:5],,,,
{8}1-7[8:1],2-4[8:1],,,{16}6,5,{8}6,{16}3,4,{8}3,
8-6[8:1],1-3[8:1],,,{16}5,4,{8}6,{16}3,4,{8}2,
4<6[8:1],3>1[8:1],,,{16}7,6,{8}5,{16}1,2,{8}3,
8-4[8:1],2-6[8:1],,,{4}1-6[8:1]*-4[8:1],1,
{16}3,5,3,5,{8}3,{16}4,2,4,2,{8}4,{16}1,8,{8}1,
{16}6,4,6,4,{8}6,{16}3,5,3,5,{8}3,{16}8,7,{8}6,
{16}3,4,2,4,{8}1,{16}6,5,7,5,{8}8,1/2,1/2,
8-2[8:1],3-6[8:1],8,3,1v8b[8:1],,,,
{8}5-3[8:1],6-8[8:1],,,{16}2,1,{8}2,{16}7,8,{8}7,
4-2[8:1],5-7[8:1],,,{16}1,8,{8}2,{16}7,8,{8}6,
8>2[8:1],7<5[8:1],,,{16}3,2,{8}1,{16}5,6,{8}7,
4-8[8:1],6-2[8:1],,,{4}5-2[8:1]*-8[8:1],5,
{16}6,4,6,4,{8}6,{16}5,7,5,7,{8}5,{4}8bh[16:1]/1bh[16:1],
{16}3,5,3,5,{8}3,{16}6,4,6,4,{8}6,{4}8bh[16:1]/1bh[16:1],
{16}6,5,7,5,{8}6,{16}3,4,2,4,{8}3,1-5[8:1],8-4[8:1],
1-3[8:1],8-6[8:1],1,8,{2}Ch[1:0],
{32}1h[2:1]/E7,B6,B5,B4,{8},,,,,,,{32}7h[2:1]/E3,
B3,B4,E5,{8},,,,,,,{32}1h[4:1]/B6,
B5,{16}B4,{8},,,{32}2h[4:1]/B7,B6,{16}B5,{8},,,{32}3h[2:1]/B8,
B7,{16}B6,{8},,,,,,,{32}8h[2:1]/E2,
B2,B3,B4,{8},,,,,,,{4}5/7h[4:1],
{12}5x,4x,3x,{2}2xh[4:1]/6h[4:1],
{8}5x,E1,E7,B3,B5,E2,B7,E3,
{4}8x,{8}2,2,{32}A7,D7,A6,D6,{8}A5,{4},{32}8h[2:1]/E3,
B3,B4,B5,{8},,,,,,,{32}2h[2:1]/E7,
E6,E5,E4,{8},,,,,,,{32}8h[4:1]/B3,
B4,{16}B5,{8},,,{32}7h[4:1]/B2,B3,{16}B4,{8},,,{32}6h[2:1]/E1,
E2,{16}E3,{8},,,,,,,{32}1h[2:1]/E8,
B7,B6,B5,{8},,,,,,,{32}2h[2:1]/E5,
E6,E7,E8,{8},,,,,,,{4}1,
D8,B1,B7,
E3,B6,B4,A5,
4h[2:1],E6,E7,A7,
4/A5,E6,3/E7,A7,
4/A5,{8}E6,3,{4}E7,4/A7,
4/5x,{8}6x,3,{4}7x,8x/2x,
1x/8h[2:1],E2,E3,A3,
7h[2:1]/A1,E2,E3,A3,
8/A1,{8}E2,7,{4}E3,8/A3,
8/1x,{8}2x,7,{4}3x,4x/6x,
5-8b[8:13],{8}4,4,5,5,3,3,
4,4,3,3,6,6,{4}5,
1>4b[8:13],{8}7,7,8,8,6,6,
1,1,7,7,8,8,{4}1-5b[8:1],
{1}1b>3q5<7<5p3>1b[2:7],
,,4h[4:3],
{8}8-4[8:1],7-5[8:1],{4},{16}3,4,{8}3,{16}6,5,{8}6,
1-3[8:1],8-4[8:1],{4},{16}2,1,{8}2,{16}7,8,{8}7,
5-2[8:1],6-1[8:1],{4},{16}3,4,{8}3,{16}6,5,{8}6,
3-6[8:1],6-3[8:1],{4}3,8-4[8:1],8,
{8}2-4[8:1],1-5[8:1],{4},{16}2,3,{8}4,{16}7,6,{8}5,
1-5[8:1],8-6[8:1],{4},{16}4,3,{8}2,{16}5,6,{8}7,
2-5[8:1],8-4[8:1],{4},{16}2,1,{8}2,{16}7,8,{8}7,
6-3[8:1],3-6[8:1],{4}6,1-5[8:1],1,
{8}8-2[8:1],7-5[8:1],8,7,{16}3,4,{8}3,{16}6,5,{8}6,
1-3[8:1],8-6[8:1],1,8,{16}4,5,{8}3,{16}6,5,{8}7,
5>3[8:1],6<8[8:1],5,6,{16}2,3,{8}4,{16}8,7,{8}6,
1-5[8:1],7-3[8:1],1,7,{4}8-3[8:1]*-5[8:1],8,
{16}4,2,4,2,{8}4,{16}3,5,3,5,{8}3,{32}6x,7x,8x,1x,{8},{16}3,
5,3,5,{8}3,{16}6,4,6,4,{8}6,{32}3x,2x,1x,8x,{8},{16}6,
5,7,5,{8}6,{16}3,4,2,4,{8}3,{16}3x/4x,2x,1x,8x,
{1}7xh[4:3]/3xh[4:3],
{32}3b/7b-5-8-4-1-3b[4:3],8/4,1/5,2/6,3/7,4/8,{16},,,,,,,,,,,,,,,,,{4}1-6b[8:1]*v4[8:1],
1b,{8}3/5,3/5,
,{16}2-8[8:1]/4-8[8:1],3,{8}2x/4x,4x/2x-6b[8:1],,2,,8,
1-3b[8:1],5-3b[8:1],1-7b[8:1],5-7b[8:1],1-5b[8:1],5-1b[8:1],{4}1,
{24}6b,5x,4,3,2,1x,8,7,6,5,4,3,2,1,8,7,6,5,{4},{24}3b,
4,5,6,7,8,1,2,3,4,5,6,7,8,1,2,3,4,{4},{24}7b,
6,5,4,3,2,1,8,7,6,5,4,3,2,1,8,7,6,{4},{2}1-5[8:3],
{4}1w5b[8:1],1b,
{8}3/7,{16}2>5b[8:1],1,{8}2,2<7b[8:1],,{16}2,,{8},5/6,
{4}6/5-1b[8:1],3/5,{32}8b>3b[8:1],7,6,5,{8},4x,4,
,{16}3-8b[8:1],4,{8}3,3-6[8:1]/5-2[8:1],,3/5,,1/8,
8/1>3b[8:1],{16}7,6,{8}1-5b[8:1],{16}6-3b[8:1],5,{8}1,6,{4}1b,
{8}6/2,{16}7<4b[8:1],8,{8}7,7>2b[8:1],,7,,4/3,
{4}3/4-8b[8:1],6/4,{32}1b<6b[8:1],2,3,4,{8},5x,5,
,{16}6<1b[8:1],5,{8}6,6-4[8:1]/4-2[8:1],,6/4,,8/1,
{12}1x,2x,3x,4xh[8:1],{24},{32}1,2,3,4,{8}5,4/6,{12}3x/7x,3x/7x,3x/7x,
{8}2,{16}8-2[8:1]*-3[8:1],1,{8}8,8-6[8:1]*-5[8:1],,8,,4,
{4}4-8b[8:1],4b,{32}1/7,2/6,3/5,4,{8},3/5,3/5,
,{16}3<5b[8:1],5,{8}3,3/8>3[8:1]*<5[8:1],,8,,1/7,
2/8,{16}1,2/8,{8}3/7,{16}5v2-8b[4:1],4/6,{8}3/7,6,{4}7b,
{8}7,{16}1-7[8:1]*-6[8:1],8,{8}1,1-3[8:1]*-4[8:1],,1,,5,
{4}5-1b[8:1],5b,{32}8/2,7/3,6/4,5,{8},6/4,6/4,
,{16}6>4b[8:1],4,{8}6,6/1<6[8:1]*>4[8:1],,1,,8/2,
7/1,{16}8,7/1,{8}6/2,{16}4,5/3,{8}6/2,{24}1,2/8,7/3,{8}6/4,{24}5x,4x/6x,3x/7x,
{1}A2h[4:3]/A8h[4:3],
{4}2-8b[8:1]/1-5b[8:1],1/2,{32}1b/6b,2bx/7bx,{16}3bx/8bx,
E
