&title=▷
&artist=qualia.net
&first=0.137
&des=Rainflow
&lv_5=14+
&des_5=
&inote_5=
(272){64},2,,,,4,,,,3,,,,5,,,,4,,,,6,,,,,{32}5,{64},,,,7,,,,,6,,,,,{32}8,{64},,,,7,,,,,1,,,,,{32}3,{64},,,,2,
,,,,4,,,,,{32}3,,,5,,,4,,,{16}6,{32},5,{64},,,,,7,,,,,{32}6,,,{16}8,{32},7,,,,1,
,,,8,,,,2,,,,1,,,,3,,,,2,{64},,,,,,,,,4,,,,,,,,,,,{32}3,
,,,,5,{64},,,,,,,,,4,,,,,,,,,,,{16}6,,,5,,,{8}7,
{16},6,,,{4}8,7,1,
{64}8,{4},{16},{64}2,{4},{16},{32}1,,,,,,,,,,,,3,
,,,,,,,,,,,2,,,,,,,,,,,,,,,,4,{4},,{16},,{64},3,
{4},,{16},,,{64},,,5,
{4},,,{16},,,{64},,,4,
{4},,{16},,{32},(136),
,,,,,,,,,,,,7h[32:51]/4pp7[16:33],{1},,{4},,{16},{4}7<2[4:1],
7-3[16:3],7-1[8:1],4h[4:1],
2>7[4:1],2v5[16:3],2-4[8:1],6h[4:1],
3>7[4:1],3p6[16:3],3-6[8:1],4h[4:1],
7<3[4:1],7q4[16:3],7-4[8:1],2h[4:1],
5>8[4:1],5-2[16:3],5<7[8:1],8h[4:1],
4<1[4:1],4q2[16:3],4-7[8:1],1h[4:1],
6q3[4:1],6>2[16:3],6p1[8:1],7h[4:1],
{1}5b,
{2}2-7[8:1]/6b-3[8:13],4-1[8:1],
8-5[8:1],7-2[8:1],
4p7[8:1]/5pp2[8:13],8p3[8:1],
6p1[8:1],7q4[8:1],
{1}3v1[4:1]/5v7[2:3],
1-5[4:3],
{4},5<3[4:1],{2}3>4[4:1],
3h[2:1],5b,
{8}6,5,3,2,,3,5,6,
,,{4}3,{8}2/3,3/5,5/6,6/7,
,8,6,4,,3,4,6,
,,{4}8,{8}6/4,4/3,3/4,4/6,
,7,5,3,,3,5,7,
,,{4}1,{8}1/7,7/5,3/5,1/3,
5/8,8/3,3/6,6/1,,1/6,3/6,3/8,
{4}8,{8}8/5,8/3,3/6,1/6,1/6,3/6,
{32}2bw6[8:1],1/3,4/8,5/7,{8}6,{4}2-8[8:1]*-4[8:1],2,{32}6-2[8:1],5/7,4/8,3/1,{8}2,
{4}6-1[8:1]*-3[8:1],6-8[8:1]*-4[8:1],6w2[8:1],{32}6,,,,,,,5,
4p8[8:1]/6q2[8:1],3/7,2/8,1,,,,,{4}4>1[8:1]/6<1[8:1],4-6[8:1]/6-4[8:1],4/6,
{32}1b,2/8,3/7,4/6,{8}5,{4}7v6[8:1]/3v4[8:1],3>7[8:1]/7>3[8:1],3/7,
{8}6/7V53[8:1],7,7/8-3[8:1],8,8/1V75[8:1],1,1/2-5[8:1],2,
2/3V17[8:1],3,3/4-7[8:1],4,4/5V31[8:1],5,5/6-1[8:1],6,
6/7-4[8:1],8,7/1-6[8:1],2,1/3-8[8:1],4,3/5-2[8:1],5,
{16}5-1[8:1],6,5,4,5-8[8:1],6,5,4,5V31[8:1],6,5-1[8:1],4,,,,,8,
,,7h[8:1]/2h[8:1],,,,,{4}4b/5v2[8:1],5b/7v4[0.4412##0.2206],
7b/6v1[8:1],6b/8v3[8:1],8b/5v2[8:1],{32}6b/5b,7,8,1,,,,,{16}1h[16:3]/4h[16:3],
,,,,6/7,,,{8}8h[8:3]/3h[16:3],,,3h[8:1],
1h[8:3],,,2h[8:5],{2}3b,
{32}8,1,{16}2,5,7,{32}4,3,{16}2,5/8,1,{32}6/3,5,{16}4,6,2,{32}1,8,{16}7,7/6,7,
{32}2/6,3,4,5,{16}6,1,7,5,2/4,1,{32}8/4,7,6,5,{16}4,8,5,2,6/4,3,
{32}4/1,3,4,3,{16}4,7,2,{32}5,4,{16}6/2,3,{32}2/7,3,2,1,{16}2,6,4/8,{32}5,6,{16}7,8/4,
{32}3,4,5,6,{16}7,8/3,{32}7,6,5,4,{16}3,2/8,{32}8,1,8,1,8,1,8,1,2/7,1,8,2,7,8,1,2,
(272)1b,8,{64},7,,,,6,,,,5,,,,4,,,,3,,,,,{32}2,{64},,,,1,,,,,8,,,,,{32}7,{64},,,,6,,,,,5,,,,,{32}4,{64},,,,3,
,,,,2,,,,,{32}1,,,8,,,7,,,{16}6,{32},5,,,4,,,3,,,{16}2,{32},1,,,,8,
,,,7,,,,6,,,,5,,,,4,,,,3,{64},,,,,,,,,2,,,,,,,,,,,{32}1,
,,,,8,{64},,,,,,,,,7,,,,,,,,,,,{16}6,,,5,,,{8}4,
{64},,,3,,,,,,,,,,,,,{4}2,1,8,
{64}7,{4},{16},{64}6,{4},{16},{32}5,,,,,,,,,,,,4,
,,,,,,,,,,,3,,,,,,,,,,,,,,,,2,{1},{16},(136){1}7qq4[1:1],
4pp1[1:1],
1qq3[4:3],
6b,
E
