&title=Ame Moyou
&artist=Tuyu
&first=0
&lv_5=12+
&des_5=摩风比三狼
&inote_5=
(160){4},,C,{8}4,3,
4,3,{4}4<8[2:1],,,,Ch[4:3],
,,,4h[2:1]/6h[2:1],
{2},{4}3/5,
4/6,8-4[4:1],4<7[4:1],
7-2[4:1],2>5[4:1],{2}5<1[4:1],
{4},{8}4,5,{2}4h[2:1],
{8},4,5,5,{4}E1,B7/B6,
B2/B3,C/B5/B4,7/8-4[4:1],8/1,
{2}5h[4:1],{4}4<7[4:1],4h[2:1],
,{8},6,6,6,5,5,
{4}4-1[4:1],4,{8}7x,4x/6,3,6x/4,
7,6/4x,3,4/6x,7,4x/6,3,4/6x,
7,4x/6,3,4/6x,7,4x/6,3,5,
5,5x,{4}5h[2:1],{2},{4}8x-6[8:1],
8x-2[8:1],8xw4[4:1],8x,
,3xh[2:1],{2}6xh[4:1],
{4}5x-7[8:1],5x-3[8:1],5xw1[4:1],5bx,
,6h[2:1],{2},{8}5,
6,{4}5,{8}4v7[4:1],3,{4}4,
{2}2h[4:1],{8}5-8[4:1],4,{4}5,
{2}3h[4:1],{4}E1,B7/B6,
B2/B3,B4/B5/Cf,{16}1x,2x,3x,4x,{4}5x,
8x-6[8:1],8x-2[8:1],8x-4[8:1],8x,
3xh[2:1],{2},{4}7v4[8:1],
8-5[8:1],1-4[8:1],{2}2v5[8:1],
{8}8,7,8,7,{4}8,5pp5[8:3]*qq5[8:3],
{2}5,{4}3,4,
{8}8,7,{4}8,{16}5,4,{8},{16}5,4,{8},{4}3/5h[2:1],
{2},{4}5v7[4:1],
{2}7<6-2[4:1],{4}E1f,E7f,
E5f,E3f,{8}3b,3,4,4,
5,5,6,6,7,7,8,8,
1,1,2,2,{4}3-6[4:1],4/3,
{2}2h[4:1],{4}1/7-3[8:1],7/1-5[8:1],
1/7,4h[2:1],5,3,
5q1[8:1],5,{8}6,6,7,8,
1,2,3,4b,{2}5h[2:1],
{4}6,6,{2}6h[2:1],
{4}5,7h[4:3],,5,
,8,2,8/C,
4-6[8:1],4-2[8:1],4-8[8:1],4,
{16}1x,2x,3x,4x,{4}5x,6xh[2:1],5,
,8-6[8:1],1/8-4[8:1],1/8-6[8:1],
1/8-4[8:1],8/1h[2:1],{2},{4}B7/B6,
B2/B3,6q3[4:1],6,
5h[2:1],{2},{8}4,5,
{4}6,4x-2[8:1],4x-6[8:1],4x-8[8:1],
4xw8[4:1],4x,{2}Ch[2:3],
{1},{4},4h[4:3],
{2}5,
{4},{8}5,6,5,6,{4}5,
3p7[4:1],7p3[4:1],3>7[4:1],7<3[4:1],
3-1[4:1],1-7[4:1],{2}7v5[4:1],
3h[4:3],5,
{4}7,6/7-3[8:1],7,8xqq8[2:1],
{2}8,4xh[8:5],
6x,{4}B7/B6,B8/B5,
B1/B4,B2/B3,8x-5[4:1],8x,
{8},4,{4}4,{16}4x,5x,6x,7x,8x,1x,2x,3x,
{4}4x-8[8:1],4,3h[4:1],4h[4:1],
5h[4:1],6h[4:1],{2}7h[2:1],
{4}8,8,4>1[8:5],4,
5,6,7<4[2:1],7,
8,1,{8}4/6-3[8:3],7,{4}4/6,
{2},{16}3,4,{8},{16}4,5,{8},{4}6h[2:1],
C,C,{8}3,4,
3,6,5,6,3,4,3,6h[8:3],
,4x,{4},{8}3,{16}3x,4x,{8}5x,5,
{16}5,{8},{16}6x,5x,6x,{8}5x,B7/B6/B2/B3,4xh[8:3],{4}5x,
5x,{8}2x,3x,{4}4x,4x/6x-2[4:1],
6x/4x-8[4:1],4x,,Ch[8:7],
,3xh[2:1],,{8}C,B7/B6,
{4}B2/B3,{8}8-6[8:1],1-3[8:1],8-4[8:1],1-5[8:1],{2},{4}7b,
{8}1/2,1/2,3/4,4/3,
5/6,5/6,7/8,7/8,1-6[8:1]/2-5[8:1],3/8,{4}1/2,
8h[2:1],6,6,1<6[8:1],
1>4[8:1],1-5[4:1],{2}5w1[4:1],
{4},Cf,{16}8-4[8:1],1,{8}2,{4}8,
{8}2-6[8:1],3,{4}2/4,7<4[4:1],4-8[4:1],
8>3[4:1],3pp7[4:3],{2}1h[4:3],
,{16}5,6,5,6,{4}5,
Cf,Cf/B8/B1/B5/B4/B7/B6/B2/B3,3<6[8:1],3,
{8}8,8h[4:1],{4},5-2[8:1],5-8[8:1],
5-1[8:1],5<1[8:1],Cf,5h[2:1],
{2},{4}2-6[8:1]/8-4[8:1],2/8,
{2}5h[4:1],{4}4x-1[16:1],8x-4[16:1],
2x-6[16:1],7x-3[16:1],1x-6[16:1],4x-7[16:1],
8x-4[16:1],6x-2[16:1],1x>5[4:1],5x<1[4:1],
1x>5[4:1],5x<1[4:1],{2}1xw5[4:3],
{1},{4}E8,
E4,{2}4xh[2:1],
,{4}4,5,
6,1w5[4:3],{1},{4}B7,
B3,
B1,B5,5/6,{8}6/5-1[2:1],7/4,
{4}5/6,{2},{4}7/2h[4:3],
7-3[4:1],{2},{8}3,3,
,5,{4}5,{2}3,
{8}6h,5h,4h,3h,{4}6/2z6[4:1],6<6[1:1],
{2},4h[2:1],
,1/5,
3/7,1bw5[4:9],
&lv_6=13+
&des_6=PinAppleski
&inote_6=
(80){4},4,{16}6h,5h,4h,3h,{8}6/2z6[4:1],2,
{1}2/6<6[4:3],
{8}2b,3,2,3x,4,{32}4,5,{16},{8}6-1[4:1],6,
6/1-4[4:1],1,4-8<6-2<8[4:3],4,,7,,1,
,C,,2/4,4/6,6/8,2/8-4[4:1],5,
4<4[2:1],{4},{8}A6,A8,A2,A4f,6/4,
1,3/5,8,2/4,7,7/5,{16}6,5,4,3,
2x/6x-2[8:3],1,8,7,{4}6,,{8}2x,1x,
7x/8x-2[8:1],2-7[8:1],7-3[8:1],3x-6[8:1],6x-4[8:1],4-8[8:1],{4},{8}1x,
2x,{32}4x,5,6x,7,8x,1,2x,3,{4}4x,{8}3/1-6[8:1],7/1-5[8:1],
3/1-4[8:1],1bx-3[8:1],1bx,1bx,{4}8,{8}1pp1[8:1],8qq8[16:3],
1,8/A2,{4}A7,{8}8/1-6[8:1],8-3[8:1],1-4[8:1],8-5[8:1],
1b,8b,{4}3bxh,{8}5-8[8:1],1-4[8:1],1/5-2[8:1],1-6[8:1],
5x,1x,{24}3,4x,5,6x,7,8x,1x,2,3x,4b,{12},{8}7/5-1b[4:3],3/5,
{4}5/7,{32}5,4,{16},{32}5-1[16:1],4,{16},,,{8}5b,,{32}5,6,5,6,
4,6,5,6,4,6,5,6,3,6,5,6,2-6[8:1],6,,6,5,4,3,2b,{8},{16}1x,2,{32}3,4,5,6,
3x,4x,{16}5x,5bx,{32}5x,4h,3,2,1,8bx,7,6,5,4,{8}3x,7bx<5[8:1],{16}7bx/2,3,{8}7bx,
,{32}3,2,1x/8x,7,{16}6,{8},{16}4,{8}4xV28[4:1],4bx,4/8V64[4:1],8,
4-2[4:1],4x,2,1,{4}8,{16}4x,4,{32}4,5,{16}4,
4,{32}4,5,{16}4,4,4/5,4,{32}4,5,{16}4,4,{32}4,5,{16}4,4,{4}5h[4:1]/4h[4:1],
{8}B6,B2,{4}Cf,{8}5h[4:1],6,,5,
{32}5,{16},{32}5,{16}4,5,{8}5/4-1[4:1],4,4,1-7[8:1],7-3[8:1],3-1[8:1],
1-5b[2:1],{4},{16}6,5,{8}4h[8:1],{4},{8}4h[8:1],
{4}5<8[4:1],{8}5b/4,2,1v4[8:1],5h,5h/1v6[8:1],5h,
{4}5h/1-5[1:1],1,,,,{8},5h,
{16}4,5,4,5h,{8}4,4,
{16}1q5[4:1]/5q1[4:1],3,1/5,7,{4}1x<5[4:1]/5bx>1[4:1],,{8},5,
7/2-4[8:1],2/7-5[8:1],7/2-5[8:1],7-4[8:1],2-6[8:1],7-3[8:1],2,7/A6f,
A3f,1b,8-4[8:1],8b/1b-5[8:1],8-3[8:1],1b-6[8:1],8<5[8:1],1bx>4[8:1],
8-4[8:1],1bx-5[8:1],8,1b,8,8/4,{32}8/Cf,7,6,5,4,3,2,1,
{4}8,{16}4,5,4-8[8:1]/5-1[8:1],5,{8}4,5/4,E1f,8w4[8:1],
8/4w8[8:1],8,{4},{32}2h/6h,D3,A3,D4,A4,D5,A5,D6,{8}A2/B2/Cf/B6/A6,4,
2/6,8,8/7-4[8:1],2/1,7/1V75[4:1],1,5V31[4:1],5,
8,8,,{16}8/7,7/8,6/5,5/6,4/5,4,{8}4/3>8[8:1],3,
{4}3b,{16}5,1bx/7b,3,6bx/2b,5,7b/3bx,8,2b/5bx,4,1bx/8b,2,7bx/5b,
4,3bx/6b,2,6x,{32}4b/8bx,3,2,1,8,7,6,5,4h[8:1],{8},{32}5,6,7,{8}8b,7/8-4[8:1],
{16}6,6,{8}8/1-5[8:1],{16}3,3,{8}1/8,{32}6,7,{16}8h[16:1],{32},7,6,5,{8}4bxw8b[8:1],4bx,
4bx,B8f/E8/E1/B1/B7/A7/D8/A8/D1/A1,{16}2-4[0.375##0.1875],1x-5[0.375##0.1875],2-6[0.375##0.1875],1x-7[0.375##0.1875],2-5[0.375##0.1875],1x-6[0.375##0.1875],2-4[0.375##0.1875],1x-5[0.375##0.1875],2-6[0.375##0.1875],1x,2w6[0.375##0.1875],2,
{8}2bx,{32}1-5b[0.375##0.375],2x,3x,4x,{8}1b,4,{16}3-7[0.375##0.375],4,3/5,6,{32}1-5[0.375##0.375],2,3,4,{8}1/5,
,4b,{16}8<5[0.375##0.1875],5,8>3[0.375##0.1875],3,{8}8-4[0.375##0.375],{16}4bxw8[0.375##0.375],4,{4},{8}2bx/6bx,
{16}3-5b[0.375##0.1875]/6-4b[0.375##0.1875],3/6,{8}3x/6x,7-4b[0.375##0.1875]/2-5b[0.375##0.1875],2/7,{16}1-5b[0.375##0.375]/8-4b[0.375##0.375],7/2,{8}8x/1x,{16}B3/B6/C,C/B6/B3/B5/B4/B7/B2/B8/B1,
{8}B6/C/B3/B7/B1/B2/B8/E6/B4/E5/B5/E4/E3/E2/E1/E8/E7,Cf,{16}1/8,7,1/8,2,{8}1v4[0.375##0.1875]/8q5[0.375##0.1875],1b/8b,{16}7-3[0.375##0.1875],7,8-4[0.375##0.1875],8,
1-5[0.375##0.1875],1,2-6[0.375##0.1875],2,{8}2b,3bx-8[0.375##0.1875]/4bx-7[0.375##0.1875],3bx/4bx,3bx/6bx,6bx-1[0.375##0.1875]/5bx-2[0.375##0.1875],5bx/6bx,
{16}4b-8[0.375##0.1875],1b-5[0.375##0.1875],{8}4b,{4}3b-7[0.375##0.0938],{8}5b/4b-1[0.375##0.0938],{16}4b,7b-3[0.375##0.1875],1b-6[0.375##0.1875],7b,{8}1bV75[0.375##0.375],
5bV31[0.375##0.375],1b<5[0.375##0.375],{4}5b>1[0.375##0.375],{32}8bx,7,6,5,4bx,3,2,1,8bx,7,6,5,4bx,3,2,1x,
8bx,7bx,6bx,5bx,4bx,3bxh,2bxh,1bxh,{4}8bxh/Cf,{8}B6,C,4/5-1[4:1],5,
5/4-8[4:1],4,4,5,6,5/4-8[8:1],8/1-5[8:1],4,
{4}1,{8}7x/B7,2x/B2,8x/B8,4x,{16}6/5-1[8:1],{8},{16}5/6,
{4}5/6>2[4:1],6/5,{8},6/2-5[8:1],6/2-4[8:1],2,
{4}2,{16}1x,5/1,1,5/1,3x,5/3,3,5/3,1x,7/1,1,7/1,
5x,5/7,5,5/7,1x,5/1,5,5/1,{8}1x,1,{4}2x/8,
5/1w5[4:7],1bx,
