&title=明日散る運命なら
&artist=幽閉サテライト
&first=-0.207
&des=Hinasuki
&des_5=Hinasuki
&lv_5=13+
&inote_5=(145){4},{8},,5,4,{4}3h[2:1],
{8}5,6,{4}7h[2:1],{8}4,3,{4}2h[2:1],
{8}4,5,{4}6h[2:1],{8}5,4,{4}3h[2:1],
{8}5,6,{4}7h[2:1],{8}2,1,{4}8h[2:1],
{8}6,5,{4}4>5[4:3],{2}Cf,
{4}1x,1x>8[4:3],{2}Cf,
{4}1,1,{2}5h[8:3]/7h[8:3],
2h[8:3]/4h[8:3],{8}5,6/4,7/3,8/2,
{32}1x,2x,3x,4x,5x,6x,7x,8x,{4}1x/Cf,3/7-4[8:1],7/1,
6/2-5[8:1],2/8,3/7-5[12:1],7/1-5[8:1],
1/8-3[8:1],8/4,{8}3x/7xh[8:1],4,6/5h[8:1],7,
4/8h[8:1],3,6/2h[8:1],5,{4}4/3>7[4:1],7bx<3[4:1],
3bx,8h[4:1],{8}E2,E3,{4}E4,
{8}E6,E7,{4}E8,{8}E4,E5,{4}E6,
{8}E8,E1,{4}E2,{8}E3,E4,{4}E5,
{8}E7,E8,{4}E1,{8}E3,E4,C,E6,
D8/E8,D1/E1,D2/E2,E3/D3,6,5,{4}4>1[4:1],
{8}8,7,{4}6<1[4:1],{8}2,3,{4}4<7[4:1],
{8}8,1,{4}2>5[4:1],{8}6,7,8-4[4:1],8,
3,2,1-5[4:1],1,5,6,7>6[8:3],8,
,,,,8/2-5[8:1],2,6pp2[8:3],6,
{16}4,,,4,,,{8}4,5/3-8[8:1],3,7qq4[3:1],7,
{16}1,,,2,,,{8}3,6/2>5[8:1],2,8pp5[8:3],8,
{16}4,,,4,,,{8}4,3/6,1/8,2V48-6[16:5]/7V51-3[16:5],3/6,
{2}2/7,{4}3-8[8:1]/7-4[8:1],3bx/7bx,
2-5[8:1]/6-1[8:1],6bx/2bx,4-1[8:1]/8-5[8:1],8bx/4bx,
1-4[8:1]/5-8[8:1],5bx/1bx,{8}3/7<4[8:1],7,1qq4[8:3],1,
{16}5,,,5,,,{8}5,6,7/4,3,2/5,
{16}3,5,3,5,4,6,4,6,{2}5bw1[2:1],
{8},,,,7/3<6[8:1],2,3/8>3[8:1],7,
{16}6-2[8:1],,,4,{8}6,5,{16}1-5[8:1],,,3,{8}1,2,
{16}8-4[8:1],,,6,{8}8,7,5/8,3/6,4/1<6[8:1],6,
{16}4>1[8:1],,,5,{8}4xq8[8:1]*v7[8:1],6,{4}4bx>8<4[2:1],8x<4b[4:1],
4,{8}8,1,3/4b>1[8:1],5,6,7,
8<5[8:1],1,2,3,6/4,7/8,2-5[8:1]/1-6[8:1],3/4,
,,5/7>4[8:3],3,{2}1h[2:1],
{4}5>2[8:1],6,{8}7/5,8,1/6,2,
{32}7xv4b[8:1]/3xv8[8:1],2x/6x,{16}1x/5x,,,{4}Cf,{8}2/6>3[8:1],7,6/1<6[8:1],2,
{16}3-7[8:1],,,5,{8}3,4,{16}8-4[8:1],,,6,{8}8,7,
{16}1-5[8:1],,,3,{8}1,2,4/1,6/3,5/8>3[8:1],3,
{16}5<8[8:1],,,4,{8}5xp1[8:1]*v2[8:1],3,{4}5bx<1>5[2:1],1x>5b[4:1],
5,{8}1,8,6/5b<8[8:1],4,3,2,
1>4[8:1],8,7,6,3/5,2/1,7-4[8:1]/8-3[8:1],6/5,
,,4/2<5[8:3],6,{2}8h[2:1],
{4}4<7[8:1],3,{8}4/2,1,8/3,7,
{32}1x,2x,3x,4x,5x,6x,7x,8x,{4}1x/Cf,1-4[8:1],5,
8-5[8:1],4,1-4[8:1],5,
8-5[8:1],4,{8}7x/5x-8[8:1],4,{4}5/B2/B3,
{8}2/4-1[8:1],5,{4}4/B7/B6,{8}7xh[2:1],8,1,2,
3xh[8:3],4,5,6,{4}7>3[4:1],3>7[4:1],
{2}5h[4:1],{8}4/6<2[4:1],3,2V86[4:1],3,
4,5,4,3,{4}6/2h[4:1],3h[4:1],
4h[4:1],5h[4:1],{2}6<3[8:5],
4<7[8:1],{8}8/4-2[12:1],4,6-8-5-1[8:3],6,
{16}4,,,4,,,{8}4,8x/2x>5[8:1],2,6-2V84[8:3],6,
{16}3x,,,4x,,,{8}5x,4x/6x-8[12:1],6,4-2-5-1[8:3],4,
{16}6,,,6,,,{8}6,7/8,6/1,2-8-4-6[16:5]/5-7-3-1[16:5],3/4,
{2}2/5,{4}3>8[8:1]/7<4[8:1],7bx/3bx,
6<1[8:1]/2>5[8:1],2bx/6bx,3-6[8:1]/7-2[8:1],7bx/3bx,
2-7[8:1]/6-3[8:1],6bx/2bx,{8}1/5-7[12:1],5,3-7-1-5[8:3],3,
{16}6x,,,6x,,,{8}6x,1/7,2/6,3/5,4,
{16}6,4,6,4,5,3,5,3,{2}4bpp4[2:1]*qq4[2:1],
{8},,,,7/3-5[12:1],2,1/3-8[8:1],8,
{16}3/7>2[8:1],,,6,{8}7x,5,{16}3/4-8[8:1],,,5,{8}4,6,
{16}7<4[8:1],,,8,{8}7,1,3/2,4,6/5-2[8:1],7,
{16}5/8-3[8:1],,,7,{8}8xp4[8:1]*qq6[8:1],6,{4}8bx>4<8[2:1],4x<5<6<7>8b[4:1],
8,{8}5x,4x,2/1b<6[8:1],2,3,4,
5>2b[8:1],6,7,8,7/1,6/5,3-8[8:1]/4-7[8:1],2/1,
,,8/6>1[8:3],2,{2}4h[2:1],
{4}8>3[8:1],7,{8}6/8,5,7/4,3,
{32}5x/1xw5[8:1],6x/2x,7x/3x,4x/8x,{64},,,,,,,,1x,B1,C,B6/B5/B4,,,,,,,,,,,,,{8}6/2-8[12:1],3,4/2-5[8:1],5,
{16}2/6>3[8:1],,,7,{8}6x,8,{16}2/1-5[8:1],,,8,{8}1,7,
{16}6<1[8:1],,,5,{8}6,4,2/3,1,7/8-3[8:1],6,
{16}8/5-2[8:1],,,6,{8}5xq1[8:1]*pp7[8:1],7,{4}5bx>1<5[2:1],1x<8<7<6>5b[4:1],
5,{8}8x,1x,3/4b<7[8:1],3,2,1,
8>3b[8:1],7,6,5,6/4,2/8,3p7[8:1]/5q1[8:1],1/7,
,,2/6<3[8:3],3,{2}4h[2:1],
{4}5<8[8:1],4,{8}2/4,5,6/8,1,
{32}2,3,4x,5,6,7,8,1,2x/6x,5,4,3,2,1,8,7,{2}2b/6h[1:2],
C
,B5,
A4,{8}3,4,{4}5,
{24},6h[24:5],,,,,5h[24:5],,,,,4h[12:5],,,,,,,,,,{8}3h[64:15],
{64},,,,,,,4h[64:13],,,,,,,,,,,,,{16}5h[64:13],{64},,,,,,,,,6h[64:39],{4},,{16},{32},{8}7,
{32},,,,,,,,,,,,6,5p4[32:59],4,3
,
E
