&title= M@GICAL☆CURE! LOVE ♥ SHOT!
&artist=SAWTOWNE
&first=0
&des=Rainflow respects for Fortnite Festival
&des_6=Rainflow respects for Fortnite Festival
&lv_6=14
&inote_6=(192){4},,,,7,
6,7,{8}5,4,
3,4,,4,,5,4,3,
,6,5,4b,,2,4,3,
5,5,4,6,,7-3[8:1],8,7,
{4}8,7,6,{8}5,6,
7,8,,6,,6,5,4,
,6,5,4,5,4,5,6,
2b/7b,2-5[8:1]/7-4[8:1],,2<7[8:1]/7>2[8:1],,7b/2b,{4},4-8[8:1],
6-1[8:1],3-7[8:1],5-1[8:1],
4-8[8:1],7-4[8:1],5-8[8:1],6-2[8:1],
5-1[8:1],4-8[8:1],3-7[8:1],3,
{8}1/8,1<6[8:1]/8>3[8:1],,1/8,{2},{4}7<4[8:1]/8-3[8:1],
7-4[8:1]/8-5[8:1],7-2[8:1]/8-3[8:1],8-5[8:1]/7-4[8:1],
8>3[8:1]/7-2[8:1],7<4[8:1]/8-5[8:1],8>3[8:1]/7-2[8:1],7/8,
{8}7,5,6,4,5,3,4,2b,
6,6,5,5,4,4,3,3,
4,3,2,4,{4}2>5[8:1],{8}2,7,
6,7,5,7,{4}6-3[8:1],6,
{8},8,6,7,5,6,4,5,
3-6[8:1],4,3,4,{2}1>4[8:1]/8<5[8:1],
{8}7,6,7,5,{4}7<4[8:1],{8}7,2,
3,2,4,2,{4}3-6[8:1],{32}3,2,1,8,{8}7,
,7-4[8:1],7,7/2-5[8:1],2,2/8-4[8:1],8,8,
1-5[8:1],8-4[8:1],1b,8b,{4}1-5[8:1],1,
{8}6/4,3,4/6,7,{4}6/4,{8}3/5,2,
3/5,6,5/3,4,{4}3<6[8:1]/5-2[8:1],3/5,
{8},2/3,3,3/4,4,4/5,5,5/6,
6,6/7,7,7/8,{2}1-4[8:1]/8-5[8:1],
{24}7b/8h[8:1],6,5,4,{16},,,{48},{24}2b/1h[8:1],3,4,{2}5,
{24}6b/7h[8:1],5,4,3,{16},,,{48},{24}3b/2h[8:1],4,5,{2}6,
{24}6b/7h[8:1],5,4,3,{16},,,{48},{24}2b/3h[8:1],1,8,{8}7,{24}5b/6h[8:1],4,3,{8}2,{24}8b/1h[8:1],7,6,
{8}5,1,1,1,{2}1b,
{16}6,5,7,4,8,3,1,2,,,,1b/2b,{4},{16}3,
4,2,5,1,6,8,7,,,,7b/8b,{4},{16}6,
5,6,5,7,4,7,4,,,,3b/8b,{4},{16}3,
4,3,4,2,5,1,6,,,,6b/1b,{4},5/6-1[8:1],
6b/8b,4/3-8[8:1],3b/1b,
6/5-8[8:1],1b/5b,3/4-1[8:1],4b/8b,
8,{8}7,4h[16:1],{4}6,{16}5,3h[16:1],{8},{4}4,
3,{16}2b,1h[16:1],{4},{8},{16}8,
1,8,2,7,3,7,4,6,5,6,4,7,3,7,2,
8,1,7,1,6,2,5,2,4,3,5,3,6,4,7,4,
8,5,8,4,7,3,7,2,6,1,6,2,7,3,{8}7,
8/3,3-6[8:1]/8-4[8:1],,3b/8b,{4},{8},1,
{16}1,8,2,7,3,6,2,5,1,4,2,5,3,6,2,7,
1,8,2,7,3,6,4,7,5,8,4,7,3,6,2,7,
{8}1,7,2,6,2,5,2,4,
7/2,5/7,4/2,2/7,{4}5-2[8:1]/2-7[8:1],2b/5b,
{16}8,1,7,2,6,3,7,4,8,5,7,4,6,3,7,2,
8,1,7,2,6,3,7,4,8,5,7,4,6,3,7,2,
8,1,7,2,6,3,7,4,8,5,7,4,6,3,{8}7,
3/6,6-3[8:1]/3<6[8:1],,3b/6b,{4},{8},2,
{16}2,1,2,8,3,7,3,6,4,5,4,6,3,7,3,8,
2,1,2,8,3,7,3,6,4,5,4,6,3,7,3,8,
4,1,4,8,3,7,3,6,2,5,2,6,3,7,3,8,
4,1,4,8,3,7,3,6,2,5,2,6,{8}3,6,
4b/5b,4b/5b,{4}6,{8}3b/6b,3b/6b,{4}2,
{8}2b/5b,2b/5b,3,6,7b/4b,7b/4b,{4}3/6,
{8}6b/5b,3b/4b,{4}4/5,{8}1b/2b,7b/8b,8/1,8b/1b,
,1b/8b,1b/8b,1b/8b,{4}1-4[8:1]/8-5[8:1],1b/8b,
{8}1,1,1,1,2,2,2,2,
3,3,3,3,4,4,4,4,
5,5,5,5,6,6,6,6,
7,7,7,7,8,8,8,8,
{4}8/1h[1:1],7,6,5,
2h[1:1],8,7,6,
3h[1:1],1,8,7,
{8}4b,4b,{4},{8}2-7[8:1],6-3[8:1],2,6,
{16}2b,2,2,2,2,2,2,2,2,2,2,2,2,2,2,2,
2,2,2,2,2,2,2,2,2,2,2,2,2,2,2,2,
2b,2,2,2,2,2,2,2,2,2,2,2,2,2,2,2,
2,2,2,2,2,2,2,2,2,2,2,2,{4}2,
{16}7,8,7,8,7,8,{8}7,{16}6,7,6,7,6,7,{8}6,
{16}5,6,5,6,5,6,{8}5,{16}3,4,3,4,3,4,{8}3,
{16}2,3,2,3,2,3,{8}2,{16}1,2,1,2,1,2,{8}1,
5b/6b,4b/3b,2b/7b,4b/5b,{4}1-4[8:1]/8-5[8:1],8b/1b,
1h[4:1],2h[4:1],3h[4:1],{8}2h[8:1],4h[4:3],
{4},,,{8}5h[8:1],6h[4:3],
{4},,{8},{16}5,4,{8}3h[8:5],2h[2:1],
{2},{8}4,5,6,7,
6h[8:3],{4},{8}3h[8:3],{4},2h[4:1],
{8}5h[8:3],{4},{8}4h[8:3],{4},1h[4:1],
3h[4:1],5h[4:1],7h[4:1],1h[1:1],
2h[8:1],3h[8:1],{8}4h[4:1],{4},{8}3h[2:3],
{4}4h[8:1],2h[8:1],4h[8:1],2h[8:1],
{8},4,5,6h[8:19],{4},{8}4,5,
{4}7h[8:1],5h[8:1],7h[8:1],5h[8:1],
{8}7h[16:1],5h[16:1],7h[16:1],5h[16:1],7h[4:1],{4},{8}5,
{8}7^4[8:1],8,1,2^7[8:1],3,4,5^2[8:1],6,
{8}2-5[8:1],6-1[8:1],4-7[8:1],6-3[8:1],7-4[8:1],6,4,8h[8:3],
{16}1,2,{8}3,{16}2,3,{8}4/7h[16:1],{16}3/7h[8:11],4,{8}5,{16}4,5,{8}6,
{16}5,4,{8}3,{16}4,3,{8}2,{16}3,2,{8}1,{16}2,1,{8}8,
{2}8/7,7/6,
6/5,5/4,
4/3,3/2,
2/1,8/1,
2/7,3/8,
4/1,2/5,
3/6,4/7,
{8}5b,4b,6b,3b,{4}3-7[8:1]/6-2[8:1],3b/6b,
{16}3,2,3,1,4,8,4,7,5,6,5,7,4,8,4,1,
3,2,3,1,4,8,4,7,5,6,5,7,4,8,4,1,
5,2,5,1,4,8,4,7,3,6,3,7,4,8,{8}4,
2b/7b,3-6[8:1]/6>3[8:1],,3b/6b,{4},{8},8,
{16}8,1,7,2,6,3,7,4,8,5,7,4,6,3,7,2,
8,1,7,2,6,3,5,2,4,1,5,2,6,3,7,2,
8,1,8,2,7,3,7,4,6,5,6,4,7,3,6,2,
5,1,4,8,3,7,2,8,3,7,4,6,{8}3,4,
7b/5b,5b/3b,{4}3,{8}3b/5b,3b/1b,{4}1,
{8}7b/5b,5b/3b,3b/1b,1b/7b,{4}7b/5b,7-2[8:1]/6-3[8:1],
7b/6b,7>2[8:1]/6>3[8:1],6b/7b,{8}5b/8b,4b/1b,
,2b/1b,6b/5b,8b/7b,{4}3b/4b,{24}1/8,2/7,3/6,4b/5b,{12},{8}5-1[8:1],
6,3-8[8:1],2,6-2[8:1],7,4-8[8:1],3,
5-1[8:1],6,2-5[8:1],3,4-1[8:1],2,3-7[8:1],5,
4-8[8:1],4,5-1[8:1],5,6-2[8:1],6,{4}6,
{8}8/1,8>3[8:1]/1<6[8:1],,1b/8b,{4},1/2,2>5[8:1]/1-6[8:1],
2-5[8:1]/1-4[8:1],2-7[8:1]/1-6[8:1],1-4[8:1]/2-5[8:1],
1<6[8:1]/2-7[8:1],2>5[8:1]/1-4[8:1],1<6[8:1]/2-7[8:1],2/1,
{8}8<5[8:1],1>4[8:1],8-5[8:1],1-4[8:1],8-4[8:1],1-5[16:3],8-3[16:3],1-6[8:1],
8,1,2,3/7,4/8,5/1,6/2,7/3,
{4},{24}1b/8b,2b/7b,3b/6b,5b/4h[8:35],{3},{4}5,
{2},{4}5,5h[8:1],
{8},5h[8:21],
E
