&title=ディスコティックナイト
&artist=NEKOZUME
&first=0.16
&des_5=zenusan
&lv_5=13
&des=zenusan
&inote_5=(140){4}B1/B2/E2,B3,B5,B7,
8h[4:3]/B1/E2,B3,B5,B7,
8/B1/E2,8/B3,8/B5,8/B7,
{8}1,{16}6,5,{8}6<1[8:1],4,{4}2-7[8:1]/6-3[8:1],6/2,
1-5[8:1]*-6[8:1],1b,{8}3/4,{16}5,4h[16:19],,,,,{4}6-1[8:1],
6,6-2[8:1],6,
8-4[8:1]*-3[8:1],8,{8}6/5,{16}4,5h[16:19],,,,,{4}3-8[8:1],
3,{8}8,1,2,3,
4h[4:1]/E6,B7/E7,B8/E1/B1,2x-6[8:1],8,{16}2,1,,7,{8}8,
4/6h[8:1],8,4/6h[8:1],7,{4}8w4[8:1],8,
{8}2/4h[4:1],1,{16}3,4,{8}1,2/5,{16}3-1[8:1],4,,4,{8}3,
7,{16}7,6,,6,{8}5,5/3,{16}3,4,,4,{8}5,
{4}7b-3[8:1],7/5b-1[8:1],{16}5,,,8,{8}2h[8:1],6,
5/3h[8:1],1,5/3h[8:1],2,8-4[8:1]*-3[8:1],1/7,{4}8,
2b-6[8:1],2/4b-8[8:1],{16}4,,,1,{8}7h[8:1],3,
5/4,{16}3,4/2h[16:3],,,6,5,{8}7-3[8:1],1-5[8:1],7,1,
{4}8h[8:1],{16}8h[8:1]/B4/B5/E5,,,1>4[8:1],8,2,,1/7,,,,,{8}5/6,
7/4,5/6,{16}2,4>1[8:1],3,5,,6/4,,,,,{8}6/5,
7/4,6/5,7/4,{16}3,5,,2h[8:1],,,{8}1/7,
{16}3b/5b,,,4b/7b,,,{8}2,{4}1b-4b[8:1]/8b-5[8:1],1b/8b,
3h[8:1]/B6/E6/B5,{16}6h[8:1]/B3/B4/E4,,,1>4[8:1],8,2,8,1,,,,,{8}4/7,
5/6,4/7,{16}2,2<7[8:1],8,1,,2/6,,,,,{8}E2,
B3,E8,B6,E3,B4,E7,B5,
{16}1h[16:3],,,8,{8}2,3/5,(155){16}4w8[0.3919##0.2008],(153.75),(152.5),(151.25),(150)A4f/E5/E4,(148.75),(147.5),(146.25),
(145)3,3,4,2h[16:3],,,{8}5,{4}4-7[8:1]/3-8[8:1],3b/4b,
{16}3,3,4,2h[16:3],,,{8}5,{4}3-8[8:1]/4-7[8:1],3b/4b,
1x>6[4:1],{8}7,8,{4}1<4[4:1],{8}2,2,
1h[8:3],2,7,3,{4}5b-2b[8:1]*-8b[8:1],5b,
{16}3,3,4,2h[16:3],,,{8}5,{4}3-8[8:1]/4-7[8:1],3b/4b,
{16}6,6,5,7h[8:1],,5,{8}6,6-1[8:1]/5-2[8:1],4/7,{4}5b/6b,
{16}1bx/8bx,,,7x/5x,,,{8}4x/3x,{2}1bx>4qq3[8:3]/8bx<5pp6[8:3],
{8},,4/5,5/4-1[8:1]*-1[8:1],{2}4/5-8b[8:1],
(140){4}1b>4[8:1],7/1<6[8:1],{8}1/3,{16}3,4xh[16:3],,,,,{4}2h[8:1]/5h[8:1],
4h[8:1]/7h[8:1],2h[8:1]/4h[8:1],5h[8:1]/7h[8:1],
3h[8:1]/4h[8:1],5h[8:1]/6h[8:1],{16}4-8[8:1],6,3,5,{4}4,
{8}3/1h[8:1],3,6/8h[8:1],6,3/5-8[8:1],4/6,{4}5/7,
{8}2/5,{16}2,4,{8}3,3,2/5,{16}3,4,{8}3,2/5,
{16}3,5,3,5,4,6,4,6,4,5,3-6[8:1],4,{8}2,3x,
7,{16}5,5,{8}6,4/7,{16}6,5,6,5,{8}4/7,8/5,
7/4,3/6,2>5qq4[8:3]/5<8v6[8:3],1/4,,,,,{4}1b-3[8:1]*-4[8:1],
1b-6[8:1],{8}1,{16}4,5xh[16:3],,,{8}2,
{16}3,4,{8}3,2/1,3/4h[8:1],{16}2x-6[8:1]*-5[8:1],4,{8}3,{4}2x,
B5h[8:7]/B4h[8:7],E7/B7,B8/B1,B2/E3,
{8}5x/4x,{16}6,5/7h[16:3],,,3,4,{8}2-6[8:1],1/8h[4:1],{4}2,
5h[8:1]/7h[8:1],{16}7h[8:1]/E6/B5/E5,,,3,3,4,,2h[16:3]/5h[16:3],,,,,{8}1<6[8:1],
2,3/1,{16}4,4,6,5,{8}6-2[8:1],5/7,8,
E7,E3,E6,E4,{16}6-1[8:1],5,,5,{8}6,3,
2b,{16}7x,8bh[8:1],,6x,{8}5/4,{4}5bv8[8:1]/4bv1[8:1],5b/4b,
2h[8:1]/4h[8:1],{16}2h[8:1]/E4/B4/E5,,,6,6,5-8[8:1],7,4h[16:3],,,,,{8}1<6[8:1],
2,1/3,4,{16}5,5-8[8:1],3,4,,,,,{8}E2,
B2,B3,E4,E6,B6,B7,E8,
{16}1-5[8:1],,,2,{8}1,3h[8:3],{2}4h[16:5],
{4},,,,B1/B5,
B2,B3,B4,
B5/B1,B6,B7,B8,
B1/7x<4[8:1],B2,B3/7x<4[8:1],B4,
8xh[8:1]/B5,7xh[8:1]/B6,6xh[8:1]/B7,B8/5-8[1:2],
4,4,4-2[8:1],4,
3,3,3-1[8:1],3,
{16}2b-6[8:1],,,3x,,,{8}4x,{4}5b-1[8:1],{8}6/5,7h[8:5],
,1,1,2,{2}2-6[8:1],
{16}B8,B7,{8}B6,{16}B2,B3,{8}B4,(155){16}B7,(153.75)B6,(152.5)B5,(151.25)B4,(150)B3,(148.75)B2,(147.5)B1,(146.25)B8/B7,
(145){8}4,4,5,5,{16}4,4,6,5,{32}7,6,5,4,3,2,1,8,
{16}7/3,3,4,2h[8:1],,4,{8}3,6-1[8:1]/5-2[8:1],7/4,{4}6b/5b,
{16}3,3,4,2h[8:1],,4,{8}3,6-1[8:1]/5-2[8:1],7/4,{4}6b/5b,
8<3[4:1],{8}2,{16}2,1,{4}8>5[4:1],{8}6,{16}6,7,
{8}8h[2:1],7,2,6,{4}4-1[8:1]*-7[8:1],4b,
{16}3,3,4,2h[8:1],,4,{8}3,3-8[8:1]/4-7[8:1],5/2,{4}4b/3b,
{16}4,4/6,,7,{8}5/7,{16}4-8[8:1],6,{8}5-1[8:1],4b,{4}5b,
{16}7b/2b,,,3b/5b,,,{8}7b/1b,{4}6b/4b,{8}8/1,8/1,
,5-1[8:1],7-3[8:1],5,{4}7,Cfh[4:1],
(140)5-1[8:1]*-2[8:1],5b,{8}8/7,{16}6,5h[16:19],,,,,{4}6-1[8:1],
6,6-2[8:1],6,
4-8[8:1]*-7[8:1],4b,{8}1/2,{16}3,4,,5/2,{8}2/5,
{4}6-2[8:1]*-1[8:1],6,3-5[8:1]*-6[8:1],{16}3,,,Ch[16:1],
E
