&title=Crush On You [UTAGE]
&artist=福山光晴「Crackin’DJ」
&first=0
&des=kyu
&lv_7=14?
&des_7=kyu
&inote_7=
(125){4},,,,{64},1bw5[0.96##0.24]/8bw4[0.96##0.24],
,,,,,,,,,,,,,,,1b-4[8:1]/8b-5[8:1],,,,,,,,,,,,,,,,8b/1b,,,,,,,,,,,,,,,,3-7[0.24##1.92],,,,,,,,,,,,,,,,3b,
,,,,,,,,,,,,,,,3,,,,,,,,,,,,,,,,3w7[8:1],,,,,,,,,,,,,,,,3,,,,,,,,,,,,,,,,7-3[8:1]/2-6[8:1],
,,,,,,,,,,,,,,,2b>5[8:1]/7b<4[8:1],,,,,,,,,,,,,,,,7b-4[8:1]/2b-5[8:1],,,,,,,,,,,,,,,,7b/2b,,,,,,,,,,,,,,,,8-4[1:1]/1-5[1:1],
,,,,,,,,,,,,,,,8/1,,,,,,,,,,,,,,,,3/6,,,,,,,,,,,,,,,,7/2,,,,,,,,,,,,,,,,8/1-5[0.24##0.24],
,,,,,,,1/8,{4},{16},{64},,,7<5[8:1]/2v7[8:1],,,,,,,,,,,,,,,,7b/2b,{4},{320},6/3>6[2:1]*>6[2:1],
{16},,,{64},,,{80},{320}5,{16},,,{64},,,{80},{320}4,{16},,,{64},,,{80},{320}3,{16},,,{64},,,{320},,,{32}3-7[0.93##0.24]/4-8[1.41##0.24],
{64},,,,,,,,,,,,,6-2[8:1]/5-1[0.96##0.24],,,,,,,,,,,,,,,,6b/3b,,,,,,,,,,,,,,,,5b/4b,,,,,,,,,,,,,,,,3-7[0.24##0.24],
{320},,,,,,,,,,,,,,,,,,,7,,,,,,,,,,,,,,,,{64}7-5[0.24##0.24],,,,,,,,7h[8:1],,,,,,,,,,,,,,,,6-2[0.24##0.24],{320},,,,,,,,,,,,,,,,,,,2,,,,,,,,,,,,,,,,{64}2-4[0.24##0.24],,,,,,,,2h[8:1],,,,,,,,,,,,,,,,5-1[8:1],
,,,,,,,,,,,,,,,5v3[8:1]/1v7[8:1],,,,,,,,,,,,,,,,5<1[8:1]/1>5[8:1],,,,,,,,,,,,,,,,5/1,,,,,,,,,,,,,,,,5,
,,,,,,,5/1,,,,,,,,5/2,,,,,,,,5/3,,,,,,,,5/4,,,,,,,,5/6,,,,,,,,5/7,,,,,,,,5/8,,,,,,,,1/5,
,,,,,,,1/5,,,,,,,,2,,,,6b,,,,2,,,,6b,,,,3,,,,,,,,3/7,,,,,,,,4,,,,8,,,,4,,,,8,,,,4,
,,,,,,,4/8,,,,,,,,4/7,,,,,,,,4/6,,,,,,,,5/4,,,,,,,,3/4,,,,,,,,4/2,,,,,,,,4/1,,,,,,,,8/4,
,,,,,,,8/3,,,,,,,,7,,,,2,,,,7,,,,2,,,,6,,,,,,,,6/3<6[16:1],,,,,,,,7>2[16:1],,,,,,,,3b,,,,,,,,7,
,,,,,,,5,,,,,,,,5/2,,,,,,,,5/3,,,,,,,,4/5,,,,,,,,5/6,,,,,,,,5/7,,,,,,,,5/8,,,,,,,,1/5,
,,,,,,,1/5,,,,,,,,1,,,,6,,,,1,,,,6,,,,2,,,,,,,,2/7,,,,,,,,3,,,,8,,,,3,,,,8,,,,4,
,,,,,,,4/8,,,,,,,,4/7,,,,,,,,4/6,,,,,,,,5/4,,,,,,,,3/4,,,,,,,,2/4,,,,,,,,1/4,,,,,,,,2/7-4[8:1],
,,,,,,,8,,,,,,,,7/2-5[8:1],,,,,,,,1,,,,,,,,2h[16:1]/7h[16:1],,,,,,,,,,,,,,,,7b/2b,,,,,,,,,,,,,,,,3h[4:1],
,,,,,,,4,,,,,,,,5h[4:1],,,,,,,,6,,,,,,,,7h[4:1],,,,,,,,8,,,,,,,,1,,,,,,2,,3,,4,,5,,6,
,7,,8,,1-6[0.18##0.42],,,,,,,,,,,,2-5[8:1],,,,,,,,1,,,,,,,,2,,,,,,,,,,,,,,,,7/2,,,,,,,,5/4,,,,,,,,8/1,
,,,,,,,2h[8:1],,,,,,,,4,,,,,,,,7h[8:1],,,,,,,,5,,,,,,,,2<7[8:1]/7-5[8:1],,,,,,,,4/3,,,,,,,,7b/2b,,,,,,,,,,,,,,,,5-1[8:1]/4-8[8:1],
,,,6/3,,,,7/2,,,,,,,,5/4,,,,,,,,,,,,,,,,7h[8:1]/2h[8:1],{4},{16},{64},,,7h[4:1],
,,,,,,,8,,,,,,,,1h[4:1],,,,,,,,2,,,,,,,,3h[4:1],,,,,,,,4,,,,,,,,5,,,,,,6,,7,,8,,1,,2,
,3,,4,,5-2[0.18##0.42],,,,,,,,,,,,6-1[8:1],,,,,,,,5,,,,,,,,6,,,,,,,,,,,,,,,,3/6,,,,,,,,1/8,,,,,,,,4/5,
,,,,,,,6h[8:1],,,,,,,,8,,,,,,,,3h[8:1],,,,,,,,1,,,,,,,,6>3[8:1]/3-1[8:1],,,,,,,,8/7,,,,,,,,3b/6b,,,,,,,,,,,,,,,,1-5[8:1]/8-4[8:1],
,,,2/7,,,,3/6,,,,,,,,1/8,,,,,,,,,,,,,,,,1>3[8:1]/8<6[8:1],,,,,,,,5/4,,,,,,,,8/1s5[0.24##0.96],,,,,,,,1h[8:1],
,,,,,,,,,,,,,,,1h[8:1],,,,,,,,,,,,,,,,1,,,,,,,,1/8,,,,,,,,7/2,,,,,,,,6/3,,,,,,,,6/2,
,7/3,,8/4,,1/5,,,,,,,,5/1,,8/4,,7/3,,6/2,,,,,,6/2,,7/3,,8h[32:9]/4h[32:9],{4},{16},,{64},8z4[0.24##0.96],,,,,,,,8h[8:1],
,,,,,,,,,,,,,,,8h[8:1],,,,,,,,,,,,,,,,8,,,,,,,,1/8,,,,,,,,7/2,,,,,,,,6/3,,,,,,,,8/4,
,7/3,,6/2,,5/1,,4h[8:1]/8h[8:1],,,,,,,,,,,,,,,,4-8[0.24##0.24],,,,,,,,4,,,,,,,,4v2[0.24##0.24]*v6[0.24##0.24],,,,,,,,4b,,,,,,,,,,,,,,,,4-8[8:1],
,,,,,,,,,,,,,,,4b,,,,,,,,4-2[8:1]*-6[8:1],,,,,,,,,,,,,,,,4b,,,,,,,,4-8[0.24##0.24],,,,,,,,4>6[0.24##0.96]*<2[0.24##0.96],,,,,,,,4b,
{4},,{16},{64},,,7/2,,,,,,,,6/3,,,,,,,,5/4,,,,,,,,5/1,
,,,,,,,6/2,,,,,,,,7/3,,,,,,,,8/4,,,,,,,,8h[8:1]/4h[8:1],,,,,,,,,,,,,,,,8b/4b,,,,,,,,5,,,,4,,,,5,
,,,4,,,,5,,,,3,,,,6,,,,3,,,,6,,,,3,,,,6,,,,2,,,,7,,,,2,,,,7,,,,2,,,,2-6[0.12##0.12]*-5[0.12##0.12],,,,2b,{1},{64},,,4/5-8[16:1],
,,,,,,,,,,,,,,,4/5-2[16:1],,,,,,,,,,,,3,,,,5<8[16:1],,,,3,,,,,,,,,,,,2/5-1[16:1],,,,,,,,3,,,,,,,,4/5-8[16:1],
,,,,,,,,,,,,,,,4/5-2[16:1],,,,,,,,,,,,3,,,,5<8[16:1],,,,3,,,,,,,,,,,,2/5-1[16:1],,,,,,,,3,,,,,,,,4/5-8[16:1],
,,,,,,,,,,,,,,,4/5-2[16:1],,,,,,,,,,,,3,,,,5<8[16:1],,,,,,,,1,,,,,,,,2/5-1[32:3],,,,,,,,3,,,,,,,,4/5-8[16:1],
,,,,,,,4,,,,4,,,,5-2[16:1],,,,4,,,,4,,,,,,,,5<3[16:3],,,,,,,,4,,,,,,,,5/4,,,,,,,,,,,,,,,,4-8[32:3]/5-1[32:3],
,,,,,,,,,,,,,,,5b/4b,,,,,,,,,,2>4[0.42##0.18]/7<5[0.42##0.18],,,,,,,,,,,,,,2b-7[0.3##0.18]/7b>2[0.3##0.18],,,,,,,,,,2b/7b,,,,,,,,,,,,,,1/8-5[16:1]*-5[16:1],
,,,,,,,,,,,,,,,1/8-3[16:1]*-3[16:1],,,,,,,,,,,,2,,,,8<5[16:1]*<5[16:1],,,,2,,,,,,,,,,,,3/8-4[16:1]*-4[16:1],,,,,,,,2,,,,,,,,1/8-5[16:1]*-5[16:1],
,,,,,,,,,,,,,,,1/8-3[16:1]*-3[16:1],,,,,,,,,,,,2,,,,8<5[16:1]*<5[16:1],,,,,,,,4,,,,,,,,3/8-4[16:1]*-4[16:1],,,,,,,,2,,,,,,,,1/8-5[16:1]*-5[16:1],
,,,,,,,1,,,,1,,,,8-3[16:1]*-3[16:1],,,,1,,,,1,,,,,,,,8,,,,,,,,4<8[0.24##0.24]*>8[0.24##0.24],,,,,,,,4b,,,,,,,,,,,,,,,,2h[4:1],
,,,,,,,3,,,,,,,,4h[4:1],,,,,,,,5,,,,,,,,6h[4:1],,,,,,,,7,,,,,,,,8h[4:1],,,,,,,,1h[8:1],{1},{16},{64},,,1b>1[2:1]/8b<8[2:1],
,,,2b>2[2:1]/7b<7[2:1],,,,3b<3[2:1]/6b>6[2:1],,,,4b<4[2:1]/5b>5[2:1],{4},,,{64},,,7-3[8:1]/2-6[8:1],
,,,,,,,,,,,,,,,2b>5[8:1]/7b<4[8:1],,,,,,,,,,,,,,,,7b-4[8:1]/2b-5[8:1],,,,,,,,,,,,,,,,7b/2b,,,,,,,,,,,,,,,,8-4[1:1]/1-5[1:1],
,,,,,,,,,,,,,,,8/1,,,,,,,,,,,,,,,,3/6,,,,,,,,,,,,,,,,7/2,,,,,,,,,,,,,,,,8/1-5[0.24##0.24],
,,,,,,,1/8,{4},{16},{64},,,2-7[8:1]/6-3[8:1],,,,,,,,,,,,,,,,6<4[8:3],{4},,{16},,,{64},,,5<7[8:1]/1>3[8:1],
,,,,,,,,,,,,,,,5v8[8:3]/1v4[8:3],{4},,{16},,,{64},,,8v3[8:1]/4v5[8:1],
,,,,,,,,,,,,,,,4w8[8:1],,,,,,,,,,,,,,,,4,
,,,,,,,,,,,,,,,2>4[8:1]/7<5[8:1],,,,1/8,,,,1/8,,,,,,,,2/7,,,,,,,,,,,,,,,,5-2[16:1]/4-7[16:1],,,,3/6,,,,3/6,,,,,,,,5-1[16:1]/4-8[16:1],
,,,,,,,,,,,,,,,5-2[32:11]/4-7[8:1],,,,,,,,,,,,,,,,4/5,,,,,,,,,,,,,,,,7b,
E
