&title=!nterroban (?, (2025 Remaster)
&artist=Aoi
&first=-0.481
&des=C7H5NO3S! vs Carcinogen?
&lv_5=14.3
&des_5=C7H5NO3S! vs Carcinogen?
&inote_5=
(220){4},,,,,,,,{2}5/3h[2:3],
{8}C,,,6,
,5,{4}5,{2}7-5[8:1],
4xh[2:3],{8}E8,,,7,
,6,{4}6,{8}B6,B5,B4,B3,
{2}6xh[2:3],{8}C,,,3,
,4,{4}4,{2}2<7[8:1],
{8}6x,6,5,5,4,4,3,3,
{1}8-2-6-4b[2:1]/1-7-3-5b[2:1],
{4}4/6h[4:1],{8}4,4/5h[4:1],,3,3,4h[1:1]/2<6q3[8:5],
,,,,,,,,{4}5/3h[4:1],
{8}5,5/4h[4:1],,6,6,7h[1:1]/2v5V36[8:5],
,,,,,,,,{4}6h[8:1]/4h[8:1],
{8}3,3,{4}4h[8:1]/2h[8:1],{8}8,8,
{4}5/7h[8:1],6/4h[8:1],3/5h[8:1],4/2h[8:1],
{8}3,6,6,6,2,5,5,5,
1b/5h[4:1],,,1b/5h[4:1],,,{4}1b/8z4[4:3],
1x,1x,1x,1x,
{1}8s4[2:1]/1z5[2:1],
{4}2v5[4:1],{8}5V31[4:1],5x,6,6,{4}6h[4:1],
1-5[8:1],8-4[8:1],{2}2-6[8:1],
{4}7v4[4:1],{8}4V68[4:1],4x,3,3,{4}3h[4:1],
{8}8,7/1,7/1,6/2,{4}6-3[8:1]/2-7[8:1],Cf,
{8},,7V13[4:1],7,4,4,5,5,
{4}4-8[8:1],6-2[8:1],{2}1-5[8:1],
{8}7,7,4h[4:1],6,6,6,{4}5/3h[4:1],
{8}4-7[8:1],4,2,1-5[8:1],1,7,{4}7-3-7b[2:1],
{8},,,,1b,1,8,8,
2-5[8:1],2,7-4[8:1],7,1-5[8:1],1,{4}8,
7-3[4:1],{8}3-6[4:1],3x,1,1,2,2,
{16}8x/3x,,,6x/2x,,,{8}5x/3x,{4}7x/8x,B7/C/B3,
2-5[8:1],2/8-4[8:1],8/1-5[8:1],1/6-8[8:1],
6/4>1[8:1],4/5<8[8:1],5/3-7[8:1],3/5,
{8}5x,5,5,5,{16}5x,3,5,3,5x,3,5,3,
{1}5xs1[2:1]*V37[2:1],
{8}3-5[8:1],3,7-1[8:1],7,3,3,5,5,
2-4[8:1],2,1,8,7-5[8:1],7,8,1,
{4}1-4[4:1],4-7[4:1],{2}7-2[4:1],
{4}6b,{8}3/4,5/2,,8h[16:3]/6h[16:3],,,{4}3h[8:5],
C,{8},4,{4}4h[4:1],
5h[8:5],C,{8},6,{4}6,
{8}7/5,7h[8:1]/5h[8:1],,6/4,{4}6h[8:1]/4h[8:1],{8}2/8,2h[8:1]/8h[8:1],
,7/1,{4}7h[8:1]/1h[8:1],{8}6/2,2/6,7V53[4:1]/3V17[4:1],7/3,
{2}7x/3x,8w4[8:1],
2-5[8:1]/8-5[8:1],7-1[8:1]/3-6[8:1],
{8}7,7h[4:1],5,5h[4:1],3,3h[4:1],1,1h[4:1],
5,5,5,5,6/4,6/4,{4}6/4,
{8}1,1,8b/2b,6,6,6,{4}7b/5b,
{8}4,4,5b/3b,7,7,7,{4}8b/6b,
{16}1x,8,{8}1,{16}7x,8,{8}7,{16}2x,4,3,,5x,4,{8}6,
{1}5bpp8[2:1]/4bqq1[2:1],
E1/B8/B1/B5/B4/E5/Ch[4:15],
{2},,,,,,6-4-2-4-6[2:3],
E2/B1/B2,
,E8/B7/B8,
{8}6/4,5,5,6/3,4,4,5/2,5/2,
{4}7h[8:5]/1h[8:5],,,D7/D2/D6/A6/A5/A2/D3/A3/D5/D4/A4,
{8},,B6/B5,B3,B8/B7,E2,,E6h[8:9],
,Ch[8:7],,E2h[8:5],,,,,,,{4}E3h[4:1],
{8}E8/B8,E2,B6/E6,E4,
E8h[8:3],E2h[4:1],,,,B1/B2,E6,B3/B4,
{4}E7h[4:3]/B7h[4:3]/B6h[4:3],E3/B2,{8},E3/B3,{4}C,
E3h[4:3]/B2h[4:3]/B3h[4:3],E7/B7,{8},E7/B6,{4}C,
{1}1xs5b[2:1]/8xz4b[2:1],
{32}8x,7x,6x,5x,4x,3x,2x,1x,{16}8x,6x,4x-8b[8:1],2x,{8}8x,4bx,,,{2}2h[4:1]/5h[4:1],
{16}6,5,6,5,{8}7,7h[4:1]/4h[4:1],
{16},,,,3,4,3,4,{8}2-5[8:1],2,6,6,
{2}7h[4:1]/4xh[4:1],{16}3,4,3,4,{8}2,2h[4:1]/5h[4:1],
{16},,,,6,5,6,5,{8}7-4[8:1],7,3,3,
{16}1x,5,1,5,{4}1h[4:1],{16}6x,2,6,2,{4}6h[4:1],
{16}3x,7,{8}3,{16}8x,4,{8}8,1b/5b,1/5,5/1,8b/4b,
{16}3x,7,3,7,3,7,3,7,2x,6,2,6,2,6,2,6,
{8}1b,,,1b/5,,,{4}1b/4s8b[4:3],
1bx,2bx,3bx,4bx,
{1}8s4[2:1]*z4[2:1],
{4}8<5[8:1]/1-3[8:1],8/1,{16}4x,2,4,2,{8}4,2-4[8:1],
,7/2-6[8:1],{16}7-1[8:1],6,{8}5x/2xV48[4:1],7,2,,,{4}5-8[8:1]*-2[8:1],
5,{16}7x,1,7,1,{8}7,1<6[8:1]*>4[8:1],
,1-5b[8:1],,1,{16}6x,7,8,1,2-6[8:1],3,4,5,
{4}6x/2x-8[8:1]*-7[8:1],2-4b[8:1]*-5b[8:1],2,{8}7,7,
{4}1/8-4[8:1],8/1-3[8:1],1-5[8:1]/8<5[8:1],8/1,
{8}7x/3x,7x/3x,8h[16:1]/2h[16:1],8h[16:1]/2h[16:1],7/1,7/1,{32}7x/1x-6[8:1],2x,3x,4x,{8}5x,
{4}1b/5xv2[8:1],5b/8x<5[8:1],8bq4[8:1]/1x>4[8:1],8b/1b,
6x-1[8:1]/5x-2[8:1],6/5,{16}3x,8,3,8,{8}3,7-5[8:1],
,2/7-3[8:1],{16}2-8[8:1],3,{8}4x/7xV51[4:1],2,7,,,{4}4-1[8:1]*-7[8:1],
4,{16}8x,2,8,2,{8}8,7/1,
{16}6bh[8:1]/5xh[8:1],,,3bh[8:1]/8xh[8:1],,,{8}6b/2x,1x>4[8:1]/5x-8[8:1],5x/1x,{4}5bx/1bx,
{8}1x-5b[8:1],7,1>3b[8:1],8,1q5b[8:1],7,1,8,
8x-4b[8:1],2,8<6b[8:1],1,8p4b[8:1],2,8,1,
{16}2x,7,2,7,1x,8,1,8,{32}1x,2,3,4,5,6,7,8,{4}1>4[32:5],
1x<6[8:1],1x-5[8:1],1x,{24}8bx/1bx,7bx/2bx,6bx/3bx,5bx/4bx,,,{4}1V37[4:1],
{8}7V15[4:1],7x,6,6,6x,6x,
7-1[8:1],7,2-5[8:1],2,8,8,8/4x,8/4,
{4}4/8V62[4:1],{8}2V84[4:1],2x,3,3,3x,3x,
8x/1x,8/1,{4}1h[8:1]/8h[8:1],{32}D2,A2,D3,A3,D4,A4,D5,A5,D6,A6,D7,A7,D8,A8,D1,A1,
{2}2bxw6[8:1],8b<5[8:1]*>3[8:1],
1bw5b[8:1],7bh[4:1]/3bh[4:1],
4h[4:1]/8-6[8:1],3h[4:1]/8-5[8:1],
2h[4:1]/8-4[8:1],8-5[8:1]/1-4[8:1],
6xh[8:3]/3xh[8:3],{8}7b/2b,7/2,8x/1x,8x/1x,
2-8[8:1],2,7-4[8:1],7,1,1,1/5x,1/5,
{4}5/1V37[4:1],{8}7V15[4:1],7x,6,6,6x,6x,
{16}2x/1x,,,7x/3x,,,{8}6x/4x,{4}1x/2x,B2/C/B6,
{8}7-3[8:1],7,7x/1-5[8:1],1,1x/8-4[8:1],8,8x/2-6[8:1],2,
2x/8-4[8:1],8,8x/1-5[8:1],1,1x/7-3[8:1],7,{4}7x/1,
{16}2x,6,2,6,2,6,2,6,2x,3,4,5,{32}6x/8x,7,6,5,4,3,2,1,
{4}8x-6[4:1],6-4[4:1],{2}4-2[4:1],
{1}1bxh[4:5],
{16},,,,,,,,8xh[32:1],1xh[32:1],8xh[32:1],1xh[32:1],8xh[32:1],1xh[32:1],8xh[32:1],1xh[32:1],
{32}8x,B8,C,B4,{8}A4,
E
