&title=DON♥ZOKO
&artist=暁Records
&first=-0.15
&des=♥Welcome to HELL♥
&lv_5=13+
&inote_5=(165)
{8},,,,
2-4[8:1],,1,,1-5[8:1]/2,,3,3,,4h[8:1],,6h[8:1],,2h[8:1],,61,
7-5[8:1]/8,,8,,8-4[8:1]/7,,6,6,,5h[8:1],,3h[8:1],,7h[8:1],,28,
2-4[8:1]/7,,8,,1-5[8:1]/6,,7,7,,6,6,4,4,7,7,38,
7-5[8:1]/2,,1,,8-4[8:1]/3,,2,2,,3,3,5,5,
{16}3,6,1,8,2,7,
{8}
3b-8[8:1]/6x,3,7-4[8:1],7,1-5[8:1],,16,,
6-1[8:1]/3,6,2-5[8:1],2,8-4[8:1],,83,,
1>4[8:1],6,71,,1-5[8:1],6,71,,
8-6[8:1],8,4-2[8:1],4,1-5[8:1],7,1x/6h[8:1],,6,
6,6,5,5>2[8:1],6,57,,5,5,5,4,4>1[8:1],5,46,,4,4,4,3,3>8[8:1],4,35,,
{16}1,6,1,6,2,7,2,7,3,8,2,1,3,8,4,7,
{8}5b,,7-5[8:1],4,7-3[8:1],,27,2,,3-8[8:1],8-4-1[8:3],8,,7,{16}7,6,5,,
{8}2b,,2-4[8:1],5,2-6[8:1],,27,7,,6-1[8:1],1-5-8[8:3],1,,2,{16}2,3,4,,
{8}7/5-2[8:1],,58,,2-5[8:1]/7,,2/8,,1p4[8:2],,4<7[8:2],,2,2,3,3,
2/4-7[8:1],,41,,7-4[8:1]/2,,7/1,,8q5[8:2],,5>2[8:2],,7,7,6,6,
8<1[8:12],,,,1,1,,,7,7,,,6,6,,,5,5pp4[8:12],,,,,,,2qq3[8:5],,2,,,,,,
5pp8[8:6],,4,,3,,2,,1,,1pp4[8:4],8,8,7,7,6,6,5,
{16}4,5,4,5,3,6,3,6,2,7,2,7,
{32}1b,2,3,4,5,6,7,8,1,2,3,4,5,6,7,8,1w5[8:1],2,3,4,5,6,7,8,
{8}1b/Cf,,
2b-4[8:1]/1b-5[8:1],,12,,2b-4b[8:1]/1b-5b[8:1],,12,,,3,37,6,26,3,37,6,
7b-5[8:1]/8b-4[8:1],,87,,7b-5b[8:1]/8b-4b[8:1],,87,,,6,62,3,73,6,62,3,
8b-5[8:1]/1b-4[8:1],,81,,8b-5b[8:1]/1b-4b[8:1],,81,,,2,34,7,56,1,34,8,
8b<5[8:1]/1b>4[8:1],,81,,8b<5b[8:1]/1b>4b[8:1],,81,,,E4,B1/B2,E8,C/6x<2v4[8:3],,6b,,
3,,3h[8:2],5,,5,3,,6,,6h[8:2],4,,4,6,,
3,3,5,5,2,4,1,5,2h[8:3],,6h[8:4],,3h[8:3],,,,
7/5x>2[8:1],,57,,8/2x>5[8:1],,28,,1<6[8:2],,6pp4[8:3],,4,4,3,3,
2/4x<7[8:1],,42,,1/7x<4[8:1],,71,,8>3[8:2],,3qq5[8:3],,5,5,6,6,
8<1b[8:12],,,,1,1,,,7,7,,,6,6,,,4,4pp4[8:12],,,,,,,3qq3[8:5],,3,,,,,,
5pp8[8:6],,4,,3,,2,,1,,1pp4[8:4],8,8,7,7,6,6,5,
{16}4,5,4,5,3,6,3,6,2,7,2,7,
{32}1b,2,3,4,5,6,7,8,1-5b[8:1],2,3,4,5,6,7,8,1b,,,,8bx,,,,
{8}8bx,8bx/Cf,
2b-5[8:1]/1b-4[8:1],,12,,2b-5b[8:1]/1b-4b[8:1],,12,,,3,37,6,26,3,37,6,
7b-4[8:1]/8b-5[8:1],,87,,7b-4b[8:1]/8b-5b[8:1],,87,,,6,62,3,73,6,62,3,
8b-4[8:1]/1b-5[8:1],,81,,8b-4b[8:1]/1b-5b[8:1],,81,,,2,34,7,56,1,34,8,
8b-3[8:1]/1b-6[8:1],,81,,8b-3b[8:1]/1b-6b[8:1],,81,,,E2,B3/B4,E8,5x-1[8:1],,8b,,
8-2[8:1]*-3[8:1],,8-6[8:1]*-5[8:1],,8w4[8:1],,8b,,,3h[8:2],2,4h[8:2],1,5h[8:2],8,6h[8:1],
1-3[8:1]*-4[8:1],,1-7[8:1]*-6[8:1],,1w5[8:1],,1b,,,6h[8:2],7,5h[8:2],8,4h[8:2],1,3h[8:1],
8<5[8:1]*-5[8:1],,8>3[8:1]*-3[8:1],,8w4[8:1],,8b,,,3h[8:2],2,4h[8:2],1,5h[8:2],8,6h[8:1],
1>4[8:1]*-4[8:1],,1<6[8:1]*-6[8:1],,1w5[8:1],,1b,,,6h[8:2],7,5h[8:2],8,4h[8:2],1,3h[8:1],
7pp6[8:12],,,,B5,,,,B4,,,,B3,,,,2qq3[8:12],,,,B4,,,,B5,,,,B6,,,,
8p6[8:12],,,,E5,,,,E4,,,,E3,,,,4p2[8:12],,,,E1,,,,E8,,B8,,E7,,B7,,
Ch[8:14]f,,,,1,,,,2,,,,3,,,,4h[8:14],,,,5,,5,,6,,6,,7,,7,,8z4z8[8:14]*<8b[8:14],,,,,,,,,,,,,,,,,,
1,,1,,8,8,1,8,1,8,
{16}1,8,1,8,
{32}1x,8x,1x,8x,1x,8x,1x,8x,
{8}
1bx-5[8:1],,1b,,5bxpp5[8:2]*qq5[8:2],,5b,,1b,4x,2x,,8b,5x,7x/Cf,,28,4,17,5,28,4,17,5,
2b-4[8:1]/8b-6[8:1],,28,,7b-5b[8:1]/1b-3b[8:1],,71,,,5,82,4,71,5,82,4,
7b<5[8:1]/1b>3[8:1],,71,,2b>4b[8:1]/8b<6b[8:1],,28,,,4,17,5,28,4,17,5,
2b-5[8:1]/8b-5[8:1],,28,,2b-6b[8:1]/8b-4b[8:1],,28,,,E2,B3/B4,E8,5x-1b[8:1],,8b,,
8b-4[8:1],,8b<5[8:1]*>3[8:1],,8bw4[8:1],,8b,,,{16}4,6,4,6,3,5,3,5,2,4,2,4,1,,
{8}1b-5[8:1],,1b>4[8:1]*<6[8:1],,1bw5[8:1],,1b,,,{16}5,6,5,6,5,7,5b,6,5,7,5b,8,5,,
{8}8b-4[8:1],,8b<5[8:1]*>3[8:1],,8bw4b[8:1],,8b,,,{16}5,7,4,6,3,5,4,6,3,7,2b,8b,1b,,
{8}1b-5b[8:1],,1b>4b[8:1]*<6b[8:1],,1bw5b[8:1],,1b,,,{16}4,5,4b,6,4,7,4b,8,4b,,
{4}4bpp4[8:16]*qq4[8:16],,,,,,,,,,E5,
