&title=脱法ロック
&artist=鏡音レン; Neru
&first=0.015
&des=Kanipoi
&lv_5=13
&inote_1=
&inote_5=(155)
{1},
{4}8z4[8:1],,
{8}2h[4:1],,5h[4:1],,
{16}6,,,47,,,2-5[8:1],,,,5,,,,7h[4:1],,,,5,,48,,,,
{8}2h[4:1],,4h[4:1],,
{16}5,,,37,,,8^5[8:1],,,,5,,,,2q6[8:1],,,,4,,,,,,
{4}7^4[4:1],4^1[4:1],1^6[4:1],6^3[4:1],1-4[8:1],1^6[8:1],
{8}1V35[4:1],,1,5,7h[4:1],,6,,25,,
{16}3,3,5,4,3/6,,3h[4:1]/6h[4:1],,
{8},,,,7-3[8:1],,5-2[8:1],,4-7[8:1],,1-5[8:1],,8qq4[4:1],,4,3,2,,26,,7,,
4/8-4[8:1],,1-5[8:1],,2-6[8:1],,3-7[8:1],,3,4,5,,73,2b,
{8}2b-6[8:1],,4-7[8:1],,5-2[8:1],,8-4[8:1],,1pp5[4:1],,5,6,7,,73,,2,,
5/1-5[8:1],,8-4[8:1],,7-3[8:1],,6-2[8:1],,6,5,4,,2-5[8:1]/6-1[8:1],,26,,
4h[4:1]/8,,3,,2/6h[16:3],
{16},5,7,,8-4[8:1],,,,4,,,,2-5[8:1],,,,5,,6,,,,
7h[4:1]/8,,,,5,,,,2h[16:3]/6,,,4,3,,2-6[8:1]*-5[8:1],,,,2,,,,8-5[8:1]*-3[8:1],,,,8,,,,,,
{8}5h[4:1]/1,,6,,7/3h[16:3],
{16},4,2,,1-5[8:1],,,,5,,,,7-4[8:1],,,,4,,3,,
25,,6h[4:1],,,,5,,47,,,,2,1,2,1,38,,,,6,5,7>5[8:3],,
{4},,
{16},,26,,2h[2:1]/6h[2:1],,,,,,,,,,
,,8/1-5[8:1],,,,7-4[8:1],,,,3>5[4:1],,,,,,,,,,
37,,,5,6-3[8:1],,47,,3,,,2,,,1q4[4:1],,,,5,,6,,7,,8,3,8,3,8,,
12,,73,,7h[2:1]/3h[2:1],,,,,,,,,,
,,1/8-4[8:1],,,,2-5[8:1],,,,6<4[4:1],,,,,,,,,,
25,,25,,34,,34,,46,,25,,37,,1<2[4:1]*q2[4:1]/6,,
{4},,{8},43,2,1,8b-4[8:1]/7,,6b-1[8:1]/8,,6/4b^7[8:1],
{16},3,4,,2,,6^8[8:1]/1^3[8:1],,85,,,,,,6^8[8:1]/1^3[8:1],,85,,,,,,
{8}1b-5[8:1]/2,,3b-8[8:1]/1,,3/5b^2[8:1],
{16},6,5,,7,,3^1[8:1]/8^6[8:1],,14,,,,,,3^1[8:1]/8^6[8:1],,14,,,,,,
{8}8b-3[8:1]/7,,6b^1[8:1]/8,,6/4b-7[8:1],
{16},3,4,,2,,1-3[8:1]/8-6[8:1],,27,,,,,,5-7[8:1]/4-2[8:1],,36,,,,,,
36,,4q8[8:1]/5^8[8:1],,,,4b^1[8:1]/5bp1[8:1],,,,4bq5[4:1]/5b<4[4:1],,,,4b/5b,,,,,,
6-4[8:1],,3-8[8:1],,6-2[8:1],,3,,6,,,,
{8}4b-8[8:1]/3,,2b-5[8:1]/4,,2/8b^3[8:1],
{16},7,8,,6,,2^4[8:1]/5^7[8:1],,14,,,,,,2^4[8:1]/5^7[8:1],,14,,,,,,
{8}5b-1[8:1]/6,,7b-4[8:1]/5,,7/1b^6[8:1],
{16},2,1,,3,,7^5[8:1]/4^2[8:1],,58,,,,,,7^5[8:1]/4^2[8:1],,58,,,,,,
{8}4b-7[8:1]/3,,2b^5[8:1]/4,,2/8b-3[8:1],
{16},7,8,,6,,5-7[8:1]/4-2[8:1],,36,,,,,,1-3[8:1]/8-6[8:1],,27,,,,,,
72,,18,,,,
{32}1b/6,2,3,,,,,,4/8b,7,6,5,,,,,1b/5,2,3,4,5,6,7,8,1,,,,
2-4[8:1],,,,1-5[8:1],,,,2-6[8:1],,,,,,,,2,,,,,,,,
{4}57,5,5,5,{8}43,5h[4:1]/1h[4:1],,,65,8h[4:1]/4h[4:1],,,
{4}35,3,3,3,{8}12,4h[4:1]/7h[4:1],,,78,2h[8:1]/5h[8:1],,
{8}6,46,6,67,6,63,6,68,6,62,2,24,2,27,2,23,2,
34,34,25,25,{16}7,8,6-3[8:1],1,7,,
{4}2h[4:3]/6,,,
{16}8,1,6-3[8:1],,,,
{4}6/1b-6[8:1],1/4b-1[8:1],4/7b,{8}68,7,8^6[8:1]/3,1,3^1[8:1],4,7^5[8:1],8,2^8[8:1],3,
{4}2/5b^2[8:1],5/8b^5[8:1],3b/8,{8}24,3,4-1[8:1],3,8-5[8:1],7,3-8[8:1],2,7-4[8:1],6,
{4}7/2b-7[8:1],2/5b-2[8:1],5/8b,{8}71,8,1-7[8:1],1-3[8:1],,,5pp7[8:1]*qq3[8:1],,,,
46,5-7[8:1]*-8[8:1],,5-3[8:1]*-2[8:1],,5w1[8:1],,,,
2,35,16,{16}7-3[8:1],3,5,1,7,,,,
{16}1b-5[16:1],,,6b-1[16:1],,,4b-8[16:1],,,7b-3[16:1],,,2b<3[8:3],,,,
{8},,,,26,26,,
{8},{16}7-3[8:1]/4,,5,6,{8}4-8[8:1],,6-1[8:1],,2qq5[4:1],,5,6,7,,37,,2,,
5/1^4[8:1],,8q4[8:1],,7q3[8:1],,6^1[8:1],,4/6,{16}3,3,2,,{8},48,6b/5b,
{8}6b/5b,,{16}2-6[8:1]/5,,4,3,{8}5-1[8:1],,3-8[8:1],,7pp4[4:1],,4,3,2,,62,,7,,
4/8^5[8:1],,1p5[8:1],,2p6[8:1],,3^8[8:1],,5/3,{16}6,6,7,,{8},1v4[8:1]/5v8[8:1],,15,,
26,2h[8:13]/6h[8:13],
