&title=終わってる料理番組
&artist=かてらざわ
&first=-0.218
&des=qiusong
&lv_5=13+
&des_5=qiusong
&inote_5=
(152){4},,,,5h[12:1],
{8}5/2,3,{4}2/5,{8}7/4,6,
{4}4/7,7<4[8:3]`8>4[8:3],{8},,,,,,2/7,
4,3/6,5,2/7,4,
{4}3/6,{8}1-3b[8:1],3p5b[4:1],,,,,,,{4}1h[4:1],
{16}2,3,{8}4,{16}B8,B7,B6,B5,
,2h[16:3],,,{8}8-5[16:3],7,8-3[8:1],1,,,{4}8-4[16:3]/7-3[16:3],
8b/7b,,2-6[16:3]/1-5[16:3],
{2}2-4[8:1]/1-7[8:1],Ch[8:1],
{4}1>5[8:7],1/6-8[8:1],6,{8}E8/B8,B5/E6,
{4}E8/B8,8<4[8:5],8b/3,{8}B1/E2,E4/B4/B3,
{4}B1/E2/B2,2>6[8:5],2,{8}E8/B8,B1/E2,
{4}E8/B8,7<3[16:9],7b,{8}B2/B3,B7/E7/B6,
{4}B2/E3/B3,8-6-4[16:9],8,{8}B8/B7,B1/B2,
{4}C,8-2-4[2:1],8b,{8}E1/B8,B7/B6,
{4}B5/E5,1-7[8:1]*-3[8:1],1,{8}3h[8:1],5h[8:1],
{4}7h[8:1],1bxh[4:3],{8},,E6/B5,B4/E4,
{4}B8/C/B1,E3,E7,B8/B1,
{16}B5/B4,C,,,2-4b[8:1],,,8,{4}2b,{16}7-4b[8:1],6,{8}1,
{4}7b,{8}1-4b[8:1],2,1-6b[8:1],8,{4}1b,
{8},,3,{16}3,5,{8}3,4,5,{16}5,3,
{4}5,5v4[16:3],5<1[4:1],1-7-5b[16:3],
{16},,,,3-1[8:1],,,5,{4}3,{16}6-8[8:1],,,4,
{4}6,2<7[16:3],{2}6>3[4:1],
{16},,,,6s2[16:7],5,{8}4,{2}6,
{4}7h[2:1],1h[4:3],{16},,,,E7,B6,B5,B4,
{4}B3,{8}3/5,{16}4,5,{8}3,{16}5,4,{8}6,{16}4,5,
{4}6/3,{8}4/7,6,{4}7/4,{8}2/5,3,
{4}5/2,2>5[8:3]`1<5[8:3],{8},,,,,,2/7,
4,3/6,5,2/7,4,
{4}3/6,7>1>2v4b[16:7],{8},,,,,,4-8[16:3],
{16}5,3,{4}4b,{8}5-1[16:3],6,
,,4,{16}6,3,{8}5,2,{4}5,
{8}6/3,7/2,{4}1-5[8:1]/8-4[8:1],1b/8b,3-1[8:1]/5-7[8:1],
3b/5b,1<6[8:3],{2}4-6[8:1],
{8}7/4,7/4,{16}4,5,4,5,3,6,3,6,{8}B4/E4,E3/B2,
{4}E2/B1,{8}3/5,6/4<6p8[2:1],3/5,4/6,{16},,,,,,,,2,
5,3,6,4,7,5,8,{8}B5/E5,B3/E3,
{4}B1/E2,{16}8,5,7,4,6,3,5,2,{8}E5/A5,E7/B7/B6,
{4}B8/E1/B1,{16}3,5,3,5,3,5,3,5,{8}B2/E3,B7/E7,
{4}B2/E3,{16}5,3,5,3,5,3,5,3,{8}E7/B7,B2/E3,
{4}B7/E7,8-2[8:1]*-6[8:1],8,{8}6h[8:1],4h[8:1],
{4}2h[8:1],8bxh[4:3],{8},,E4/B4,B5/E6,
{4}B1/B8,E7,E3,B1/B8,
{16}B4/B5,C,,,2-8b[8:1],,,6,2-4b[8:1],,,6,2-6b[16:3],,,6,
,,,,{8}8-5b[8:1],7,8>4b[8:3],1,{4}8b,
{16},,,,6,3,6,4,{4}5-2-4[4:1],4-8[16:3],
,1>5[4:1],5-3-1b[4:1],1V75b[4:1],
{16},,,,7-1[8:1],,,4,{4}7,{16}4-2[8:1],,,7,
{4}4,8>3[16:3],{2}4>7b[4:1],
{4}6b,{16}2z6[16:7],3,{8}4,{2}2,
{4}1h[2:1],8h[4:3],{16},,,,E2,B2,B3,B4,
{4}B5,B2/E3/B3,B7/E7/B6,B2/E3/B3,
B7/E7/B6/C,{8}7/2,1,{4}2/7,{8}3/6,5,
{4}3/6,5<8[8:3]`4>8[8:3],{8},,,,,,5/2,
4,6/1,3,5/2,4,
{4}6/1,8>2v4b[2:1],,,,4p7[16:3],
5q3[16:3],4-8[16:3],
{8},,1,2,{2}3q6[8:3],
{4},8-4[16:3]/7-3[16:3],8b/7b,2-6[16:3]/1-5[16:3],
{2}2-4[8:1]/1-7[8:1],{24}B6,B5,B4,B3,,,,,,,,,,,,,,,{8}4-1[16:9],
{16}5,3,,,,,{8}E6/B5,E7,
{4}E8/B8,{16}5-8[16:9],4,6,4,,,,,{8}B4/E4,B3,
{4}E2/B1,{8}3-8[16:9],{16}2,4,{4}3,{8}B4/E5,B6,
{4}A7/D7,{16}6-3[16:9],5,6,5,{4}6,{8}E2/B2,E1,
{4}E8/B7,8>3[16:3],8<5[4:1],{8}8/B3/E3,E2,
{4}E8/B8,1<6b[16:3],1>4b[4:1],{8}1/B6/E7,E8,
{4}E2/B1,2bh[16:23],{8},,5,7,
{4}1,1bh[16:7],,C,
{16},,,,B7,B2,{8}B6,{16}C,B7,{8}B2,{4}1-5[8:1],
1b,{16}1-3b[8:1],,,2bx,{4}1bx-7b[8:1],1bxw5b[16:3],
1bx,{16}6bx,5bx,{8}6bx,{2}4bxw8b[8:3],
{16},,,,1,8,1,8,2,7,2,7,{8}3,{16}5,3,
{4}6,{8}1-3-5[4:1],8,{4}1/5>1b[4:1],1w5[16:3],
,7<4[16:3]/1>4[16:3],7/1,1-4-7b[4:1],
1b,1<4b[8:5],{32}B5/E5/B4,,,,,,,E7,C/B2/E3/B3,,,,,,,E5,
{4}C/E1/B8/B1,{16}6v3b[8:1],5,{8}4v7b[8:1],6,4,{4}2h[16:15],
,4h[1:1],{16},,,,B2,B1,B8,B7,
{2}B6,{4}B7/B6,B2/B3,
Ch[16:1],{8}2/7,2/7,3/6,6/3,2/7,2/7,
3/6,3/6,{4}4q8q4[2:1],{2}4,
{8},,2/7,4,3/6,5,2/7,4,
{2}3/6,{16}B8/B4,B3/B7,B2/B6,B1/B5,{4}B8/B4,
,4-1[4:1],1-6[4:1],6-3[4:1],
,8-4[4:1],{2}6-2[4:1],
{4}4h[8:1],4,4,4,
4,4,{24},,,,,,,,,,,,2x/7x,
3x/6x,4x/5x,3x/6x,{6}2x/7x,{4},,,{16},,{64},,{96},{32}7s3b[8:19],
,,,,8x,,,{2}8x,
{16},8x,{48},,{6}8x,{24},8x,,8x,{48},,,{16}8x,{48},,{3}8x,
{96},,,{32}8x,,,,,,,8x,,,8x,,,{16}8x,{32},8x,{96},,,,,,{24}8x,,8x,,8x,
E
