&title=HELL! or HELL
&artist=RAISE A SUILEN
&first=0.01
&lv_5=14.4
&des_5=Yui
&inote_5=
(197){4},,,,,,,,1,
1,1,{8}1,7,
1,5,1,7,1,5,{4}1,
2h[8:1],2h[8:1],2h[8:1],2h[8:1],
{8}6/1,2,3/7,6,2/5,3,{4}4/5,
5/4,5/6,3/4,5/7,
2/4,5/8,1/B4,8/B6,
{16}3,6,3,6,2,5,2,5,{32}1,8,7,6,5,4,3,2,1,8,7,6,{8}5b-3-8[8:3],
,,8-4[8:1],7,{4}6b-2b[8:1],{8}3/A6f/D7/D6,3,
,1,{4}1>4[8:1],{8}8,7,6,4/5,
{16}2,4,2,4,{8}3,3,4/7,{24}6,5,6,{8}5,7h[4:1],
,8,2/1,{16}3,4,{8}2,5/1-6[8:1]*-5b[8:1],,1b,
,3/4,{16}2,4,3,5,{8}4,4w8[8:1],,4bx,
,2,1/2,3/8,{16}7,5,6,4,{8}5,3h[4:1],
,7,7/8,6/1,{16}2,4,3,5,{8}4,6h[4:1],
,2,3,4,{16}7,5,6,2,4,3,{8}5,
4/6,7,{16}1,8,1,8,2,7,3,6,4,5,{8}3-8[8:1],
,4,5,6,{4}7<4[8:1],{16}7/8,1,{8}2h[4:1],
{16},,4,5,{8}6v1[8:1]/2v5[8:1],7/3,6b/2b,,,2-5[8:1],
,2/8-4[8:1],8,3,{4}3>1[8:1],{16}7,6,{8}5h[4:1],
{16},,2,3,{8}4v1[8:1]/5v8[8:1],3/6,{2}4bx/5bx/Cf,
{4}2/5-7-1[2:1],2,2,2,
3/8<5-1[2:1],3,3,3,
8/4V28-3[2:1],7,6,5,
{8}3,4,2,5,1,6,{4}8>3[4:1],
3<6[4:1],6q3[4:1],3q8[4:1],8-2-4[16:5],
4,5,{8}5,4,3,2,
{16}1,2,3,4,5,6,{8}7,8,1/5,2/6,7/3,
B2h[8:7]/B3h[8:7],,,,,,,Cf,
,7/5h[8:1],7,4/6h[8:1],4,5/3h[8:1],5,2/4h[8:1],
2,1>4[8:1],,1/8,7,6,{4}5/3-8[8:1],
{8}3/4,5,6,7,8/4,3,2,1/8,
7/2,6/3,5/4,3/6,{32}5bx/4bx,3x/6x,{16}2x/7x,{32},,8bx/1bx,7x/2x,{8}6x/3x,{32}5bx/4bx,6x/3x,{16}7x/2x,
,,{8}1-5[8:1],1,8-3[8:1],8,2-5[8:1],2,6<1[8:1],
6,2,3,4,{16}4,5,3,6,{8}2,1bxh[8:7]/7bxh[8:7],
,,,,,,,1-5[8:1]/7-4[8:1],
,1/7/Cf,{32},,,,,,,,E2,B2,B3,E4,E8,B7,B6,E6,B1,B2,B3,B4,B8,B7,B6,B5,
{2}3xh[2:1],{12}5,4,6,3,5,4,
{2}3/6h[2:1],{12}2,4,3,5,3,4,
{2}5/2h[2:1],{12}7,5,6,4,6,5,
{8}7/4,8-5[8:1]*<5[8:1],,8-3[8:1]*>3[8:1],,8w4b[8:1],,8b,
{24},,,,,,,,,,,,{12}1,5,3,8,4,6,
{2}2-6[8:1],{12}8,4,6,1,5,3,
{2}7-3[8:1],{12}2,1,4,5,8,7,
{8}4b>5[2:1],,,,,,,2,
2-6[8:1],2,8-5[8:1],8,4>1[8:1],4,6-3[8:1],6,
2-5[8:1],2,4-7[8:1],4,3>8[8:1],3,6v1[8:1],6,
2,2,{16}3,4,{8}3,5/6,7,5/6,4,
{16}3,4,2q6[8:1],4,{4}1,{8},7b-1[8:1],5,7,
,2-4[8:1],8,2,,7-3[8:1],4/6,7/3,
,1,2,3/5,4/6,7/5,8,{16}1,8,
1,8,1,7,1,7,1,6,1,6,1,5,1,5,{32}1b,2,3,4,
5,6,7,8,{8}1bx/5bx,{4}3bx-8b[8:1]/7bxv4b[8:1],3b/7b/Cf/E8/E4,{8}2-8[8:1],7-4[8:1],
2,7,2>5[8:1],2,{24}6x,7x,8x,1x-3[8:1],,,{8}3x-5[8:1],5x<2[4:1],
,2-5-8[4:1],{4}2h[2:1],A5f/D6/D5,{8}1,1h[4:1],
,8,8h[8:1],7,7,7/5,6/4,5/3-8[8:1],
,3/5-1[8:1],,5/2-5[8:1],,2/8w4[8:1],,8b,
,,5/3,2,1,5/4,6,7-5[8:1],
,7/8-4[8:1],,8/1-3[8:1],,1,{24},,,4bxq8b[8:1]/8bxq4[8:1],3/7,2/6,
{8}1/5,4x/8x,{24},,,4bxv7[8:1]/8bxv3b[8:1],7/3,6/2,{8}5/1,8x/4x,,E2h[4:1]/B1h[8:3]/B2h[8:5]/8x<6v4[2:1],
,,,,,,,2b/4b-7[8:1],
,2/4,2,2,2/8-4[8:1],2,2/8-6b[8:1],2,
3/8-4b[8:1],3,8/3,3,{32}8/3,7,6,5,{8}3/4h[4:1],,1b,
,5/1-3[8:1],5,5/1-7[8:1],5,5/1-4[8:1],5,5/1bx-6b[8:1],
5,5/1bx>4b[8:1],5,5/1bx<6b[8:1],5,5/1bx,5,{24}5bx/1bxp5[4:1],2x/6x,3x/7x,
{8}8x/4x,5xp1[4:1],,1-7-5[4:1],2,3,4,4-1[8:1]*-7[8:1],
,4,,8<5[8:1]*>3[8:1],,8-4[8:1],,8,
{16},,2,1,{8}2,3,{4}4/5<7[8:1],{8}3/5,{32}1,2,3,4,
5,6,7,8,1,2,3,4,5,6,7,8,1,2,3,4,5,6,7,8,1,2,3,4,5,6,7,8,{8}1bx/5bx,
{24},,,,,,7/B2,B3,{3}B4,{24},,2/B7,B6,{6}B5,
{4},{32}8,D8,A7,D7,A6,D6,,,1,D2,A2,D3,A3,D4,,,8,B8,Cf,B4,,,,,,,,,{8}8,
{4}8<5[8:1],{8}1,2,3,5/4,
{16}7,5,7,5,{8}6,6,5/2,{24}3,4,3,{8}4,2h[4:1],
,1,7/8,{16}6,5,{8}7,4/8-3[8:1]*-4b[8:1],,8b,
,6/5,{16}7,5,6,4,{8}5,5w1[8:1],,5bx,
,7,8/7,6/1,{16}2,4,3,5,{8}4,6h[4:1],
,2,2/1,3/8,{16}7,5,6,4,{8}5,3h[4:1],
,7,6/2,5/1,{16}8,4,8,4,1,5,1,5,
2,6,2,6,2,6,{24}1,2,3,7,6,5,2<4q2b[8:15],3,4,8,7,6,2bx,{1},,{16},{48},{1}1p2-5[2:3]/5p6-1[2:3],
{4},,,,2/6,
4/8,1/5,{8}3/7,3,
{4}6/2,8/4,5/1,7/3,
{16}2,1,3,5,4,6,3,4,2,7,8,6,4,5,{8}3xp4-7[8:5],
,,{4}8xq7[4:1],{2}8x,
E
