&title=PASSIONATE ANTHEM(Long.ver)
&artist=Roselia
&first=-0.15
&des=Srinky
&lv_5=14
&des_5=Srinky
&inote_5=
(194){4},,,,{1}8b-5b[1:1]*z4b[1:1],
{16},,,,,,,,,,,,,,,1b>1[1:1],
{1},{4},,,{16},,,2<7-3<6[1:1],
{1},{4},,,{16},,,3>4[16:9]*-7[16:5],
,,,,,,,,,,,,,,,4x,
5x,4x-1[8:1],5x,4x,5x,4b,{8}B2f/B3f,,,{4}8b<5[16:1]/1b>4[16:1],
{16},,,4x-8[8:1],,4x,,7-5[8:1],,7,,4-8[8:1],,4,,7-5[8:1],
,7,,4-8[8:1],,4,,,,,{8}6b-2[8:1],{4}6b,
{16},,,3x,4x,5/2,,,,6,5,7/4,,,3,4,
2,6,5,7,3,4,{8}2,{16}8x-4[8:1],1x,8,1,{4}8b,
{8},2x-4[8:1],2,5-1[8:1],5,2-4[8:1],2,5-1[8:1],
5,2-4[8:1],{4}2,{8},7b-3[8:1],{4}7b,
{16},,6x,5x,{4}4/7,{16}3,4,{8}2/5,{16},,6,5,
7,3,4,2,6,5,{8}7,{16}1x-5[8:1],8x,1,8,{4}1b,
{8},5<8[8:1],5,1>4b[8:1],1,5<8[8:1],5,1>4b[8:1],
1,5<8[8:1],5,1>4b[8:1],1,6b-2[8:1],{4}6b,
{8},4xh[8:3],5,6,7,8h[8:3],1,2,
3,{16}4x,5,4,5,4-8[8:1],5,4,5,{8}4b,,,,1>4[8:1],
1,5<8b[8:1],5,1>4[8:1],1,5<8b[8:1],
5,1>4[8:1],1,5<8b[8:1],5,2b,2bh[#2.319588],E6,
,B4,,E8,,B1,,B6,
,B3,,B7,,B2,{16},8bx-6-4[8:7],{1},{4},{16},,,4-2-8[1:1],
{1},{4},{16},,,6x,
,6h[4:3],
,,,,,,,8,,1,,2>6[16:25],,,,,,1,
,,,1,,,,8,,,,8,,,,7,
,,,7>3[16:15],,,,,,,,B5,,,,B6,
,,,B7,,,,B8,,,,8b/4bh[16:7],,,,,,,,,8-4[8:1],
4x,6x,2x,8b,Cf,,,,,,,{8}3h[8:3],
4,5,6,7h[8:3],,,6h[8:3],
,,5xqq1[8:5],,,,,,,8,
7,6,5/3h[16:5],{16},,,4,
,5,,6/3-8[8:1],,,,3/6-1[8:1],,,,3b/6b,,,,,,,{8}1/8h[8:7],
,2,2,3,3,4,
{4}4x>1[8:1],6x/4,8xpp3[4:5],{8}7,7,
6,6,5,5,4x-7b[4:1],4x,{16},,,,,,,3b-8[8:1]/7b-4[8:1],
,,,,,,,,{4}2x<7[4:1],
{8},D1/6>3[4:1],,,D5/2<7[4:1],,,3,
4,5,{4}6x-8pp3[8:11],,,B6,
C,B5/E5,B8/E1,
{8}8xh[8:3],,,3x>8[4:1],,,{4}A1/7<4[4:1],
{8},D6/3>8[4:1],,,D2/7<4[4:1],,,8x,
1,2,{4}3x-5pp8[8:11],,,B2,
C,E2/B1,B4/E4,
4h[4:3],,,8bqq5[8:5],
{24},,,,,,,,,,,,,,,4b,3x,2x,{4}1x,
{32},,,,,,,,,,,,,,,,,,1b/Cf,2x,3x,4x,5x,6x,7x,8x,1x,2x,3x,4x,5x,6x,
7x,8x,{16}1x,,,,2-4[8:1],,1-5[8:1],,2,,1,,,,7/4,
,5,6,5-2[8:1],,7-4[8:1],,5,,7pp2b[8:5],,,,7b/2,,,,,,,,,,,,,,,,1-5[8:1],
,7-3[8:1],
,1,,7,,,,4x,5s1[16:5]*z1[16:5],3,,,,,,,,,,,,1x-5[8:1],
,1,,7-3[8:1],,7,,2v5[8:1],,2,
,7<4[8:1],,7,,3>8[8:1],,3,,3bxpp6b[16:13],,,,,,8,
,,,1,,,,2,,2h[4:1],,,,5,,6,
,7/8,,1,,7x/8xs4[16:7],,6,,8b/7,,,,,,,,,,,{8}3-8[8:1],
2,7-4[8:1],6,1-5[8:1],2,
{16},,,6,,7,,8,,1b-7[8:1],,,,,{8}2b-6[8:1],
,3b<6[8:1],,8x-4[8:1],8x,,,6,
7,8,1>4[16:3],8,{2}1b/7h[4:1],
{8},6/2,7<4[16:3],8,{2}7b/1h[4:1],
{8},7h[4:1]/2h[4:1],,,8/1,2,8/1,7,
8/1,2,8x-4[8:1]/2x-4[8:1],7x,{4}8/2,{16}5x,6x,5x,6x-8-2[16:5],
,,{8}5,4,3,{4}3b<6[8:1],3/1h[8:1],
{8},8-4[8:1],7-5[8:1],8,7,{16}3x,3,{8}4,{16}5,5,
{8}4pp8[2:1],,,,,,,1xq5[8:1],
1x,7-4[8:1],7,1q5[8:1],1,7-4[8:1],7,1q5[8:1],
{16}1,,,,,7b-3[8:1],,7b,,,,,,,3x,4x,
{4}5/2,{16}6,5,{8}7/4,{16},,3,4,2,6,5,7,
3,4,2,8x-4[8:1],1,8,1,8b,,,,,,2x-5[8:1],,2,
,8p4[8:1],,8,,2-5[8:1],,2,,8p4[8:1],,8,,2-5[8:1],,2,
,,,,,7b,,7bh[#2.010307],,B4,,,,B5,,,,B3,
,,,B6,,,,B2,,,,B7,,,,
B1,{48},,,,,,,,,,,,,,,,,,{24}8bx/1bx,7x/2x,6x/3x,5x/4x,{48},,,,,,,,,,,,,{16}2x>5[8:1],
,1,,8,,7>2[8:1],,6,,5,,4<7[8:1],,3,,2,
,1>4[8:1],,8,,7,,6-2[8:1],,5x-1[8:1],,6x,,5x>7[1:1],,,,8x,
,8x,,7,,7,,6,,6,,5,,5h[4:1],
,,,,,,,,,1-5[8:1],,,,1/7v4[8:1],,,,3,
,3>8[8:1],,,,7,,7<4[8:1],{48},,,,,,,,,,{24}8x,1x,2x,3xh[12:5],
,,,,,,,,,{8}7-5-1[8:3],,3,3,2,
{4}2h[4:1],{8}7-1[8:1],1-5[8:1],{2}5x-3>2-6[16:7]*-7>8-4[16:7],
{8},B6f/B5f/B4f,{24},,,,,,8b/1b,7x/2x,6x/3x,5x/4x,,,,,,{8}7x<4[8:1],
8,1,2<7[8:1],3,4,5>2[8:1],6,7,
8<5[8:1],1,2,3x-7[8:1],4x-8[8:1],3,{4}4<2[1:1],
{8}1,1,2,2,3,3,4,4h[4:1],
,,,1-5[8:1],,1/7-3[8:1],,7-5[8:1],
4,7-3[8:1],1,7-5[8:1],4,7pp2[8:3],,,,,,1x,
{4}1-6[8:1],{8}4,4-8[8:1],
{24},,,,,1x,2x,3x,4x,5xh[2:1],,,,,,,,,,,,{8}6-8-2[4:1],
,,,,3x<6[4:1],,,D5/7>2[4:1],
,,{4}D1/3<6[4:1],{8},B8/B7,{4}B6/B5,
{16}B8,B1,{8}B2,3x,3x-7-2-5-8-4[8:13],,,,,,,,7x-5-8-3b[8:5],
,,,,,,,,3x<6[4:1],
,,D5/7>2[4:1],
,,{4}D1/3<6[4:1],{16},7,,7,,8,,8,
,1,,1x,2x,3x,{8}4xqq8[8:5],,,,,,,7,
7h[16:5],{16},,,3>8[16:3],,,,7,
,7<4[16:3],,,,1,,1pp4[8:5],,,,,,,,,,,,,,5h[4:1],
,,,4,,6/3,,7/2,{32},,1bx,2,
3,4,5,6,7,8,1,2,3,4,5,6,7,8,1,2,3,4/Cf,,,,,,,,,,,,,,,,,{16}7-5[8:1],
,8-4[8:1],,7,,8,,,,2/5,,3,4,3-7[8:1],
,1-5[8:1],,3,,1qq6b[8:5],,,,1b/3x,,,,,,,,,,,,,,,,1-5[8:1],
,7-3[8:1],,1,,7,
,,,4x,5v8[16:5]*s1[16:5],3,,,,,,,,,,,,1x-5[8:1],
,1,,7-3[8:1],,7,,2v5[8:1],,2,,7<4[8:1],,7,
,3>8[8:1],,3,,3bxpp6b[16:13],,,,,{8}8,,1,
,2,{4}2h[4:1],{8}5,6,7/8,1,
7x/8xpp3[2:1],6,{4}8b/7,{16},,,,,,,,,3-8[8:1],
,2,,7-4[8:1],,6,,1-5[8:1],,2,,,,6,
,7,,8,,1b-5[8:1],,,,,{8}3b-7[8:1],,6b-2[8:1],
,8x-4[8:1],{4}8x,{8},6x/4x,7/3,8,
2>5[16:3],1,{4}2b/8h[4:1],{8},,,6/2,
7<4b[16:3],8,{4}7b/1h[4:1],{16},,,,,,3,4,
{4}3-7[8:1],6-4[8:1],{8}1-5[8:1],1,7v4[8:1],7,
2-6[8:1],2,{4}8-6-4[4:1],{8},,,7/3,
6<1[16:3],5,{4}6b/4h[4:1],{8},,,2/6,
3>8qq4[8:7],4,{4}3b/5h[4:1],{8},,,,,,,1bxh[4:7],
{1},{4},,,{16}8x,
1x,{8}7bx/2bxv8<7-5>4v6>5v2>3-5b[8:27],,,,,,,,,,,,,,,,5xv8<7-5[8:11],
{1},{4},,,{16},4x,
5,4,5,4,5,4,5,4,5,4,
5,4,5,4,5,3x,6,3,6,3,6,3,6,3,6,3,
6,3,6,3,6,2x,7,2,7,2,7,2,7,2,7,2,
7,2,7,2,7,1bx,8,1,8,1b-5[8:1],8,1,8,1b,,,,,,7b/2bq6[8:1],
,,,2/7-4[8:1],,8,,7/1-5[8:1],,8,,1/7-3[8:1],
,8,,7/2-6[8:1],,1,,2/8-4[8:1],,1,,8/2V46[4:1],,1,,8,
,7h[8:3],,,,,,1,,1q5[8:1],,,,1/7-4[8:1],,,,7/2-6[8:1],
,,,2/8p4[8:1],,,,8/1-5[8:1],,,,1/7v4[8:1],,8,
,7x/1x<6[8:1],,2x,,,,4x,,4-7[8:1],,,,4/3v8[8:1],,,,3/6-2[8:1],
,,,6/4-8[8:1],,,,4/1<6[16:3],,,,2,,3,
,4,,5bv2[8:1],,,,7/5,,6,,6,,2/4,,3,
,3,,7/5,,6,,6,,6xpp2[16:7],,6,,,,,,,,,{8}3,
3-7[8:1],,5,{4}5q1[8:1],
{8}4,4p8[8:1],,E7,E6,E5/E1,{24}B8,B7,B6,B5,{12}B4,
{8}3x,2x,1xh[8:3],3x,5,7,2h[8:3],4,
6,8,3h[8:3],5,7,1x<6[16:3],,3/1,
,,{4}5x>8>5[8:9],{8}6,6,,,7q5[8:3],
7,,,,,,8x,
7,6h[8:3],8,2,4,7h[8:3],1,3,
5,8h[8:3],2,4,6x,6>3[16:3],,8/6,
{16},,,1x<4<1[8:9],,,,2,,2,,,,,,3q1[8:3],
,3,,,,,,,,,,,,,,4,
,5,,6h[4:7]/3>8<7V13[1:1],{1},{4},,{16},,,3,
,2,,1h[4:1],,,,8h[4:1],,,,7<3-5-7[1:1],,,,2,
,2,,,,,,,2x,1x,{8}8x-4[8:1],{4},{16},,,{48}2bx/1xh[6:1],
,3,,4,,{16}5,{48},,,,,,,,,7bx/8xh[6:1],,6,,5,,{16}4,{48},,,,,,,,{24}1x/5x,2x/6x,
3x/7x,8x/4x,,,,,,4bx/8bx,3/7,2/6,1/5,4h[2:1]/8h[4:1],{4},,{16},,,8bqq6qq4qq2qq8b[16:37],
{1},{4},,{8},5x,
5xp8[2:1],,,,,,,E1/B8/B1,
{16}B5f/B6f/B4f/B3f/Cf,,,,,,,4xw8[1:1],{1},{4},{8},{16}8x,
1x,
2x,3x,{8}4b-8[8:1],{16},,,,,,6,5,{4}6<1[8:1],
{1}6b/2>5qq1b[4:3],
{8},,1-3[8:1],8-6[8:1],1,8,{16},,4,5z1[16:5]*v2[16:5],
{4}3,{8},,,,8x-4[8:1],8,
2-6[8:1],2,7v4[8:1],7,2>5[8:1],2,6<1[8:1],6,
6bxqq2[4:3],,,1,,8,,7,
{4}7h[4:1],{8}4,3,2/1,8,2/1qq5b[2:1],3,
{4}1b/2,{8},,,,3-8[8:1],2,
7v4[8:1],6,1q5[8:1],2,6-2[8:1],7,,4bxqq1b[8:7],
,,,8,,7,,6,
6h[8:3],,,8,1,2,3>5[8:3],4,
5/3b,,,,,7,6<4[8:3],5,
{16}6b/4,,,,,,,,,6,5,6-2[8:1],,,,3-5[8:1],
,,,8-4[8:1],,8,,2v5[8:1],,2,,7-3[8:1],,7,,1-3-5[4:1],
,,,,,,,,,3x,,2>8[8:3],,1,,8/2b,
,,,,,,,,,6,,7<1s5[16:13],,8,,7b/1,
{4},,,{16},,,{48},{24}Cf/B7f/B6f/B3f/B2f/E7f/E3f,
{48},,,,,,,,,,,,,,,{16}1x-5[8:1],,1,,7-3[8:1],,7,,1-5[8:1],,1,
,7-3[8:1],,7,,1-5[8:1],,1,,7-3[8:1],,7,,2b>5[8:1],,2b,
,,,,,6x,5,7/4,,,,3,4,2/5,,,,6,
5,7,3,4,2,6,5,7,,,,1bx,8x,1,
8,1,8,1,8,1,8,1,8,1,,,,6x-3[8:1],,6,
,2-7[8:1],,2,,6-3[8:1],,6,,2-7[8:1],,2,,5b<8[8:1],,5b,
,,,,{4}3xv8[8:1],{8},1<6[8:1],{16},,,,2x,
3,4,5,6,7,8,1,{4}2,{16}3bx,4,3,4,
3,4,3,4,3,4,3,4,3,4,{8}3,8x-4[8:1],8,
2-6[8:1],2,8-4[8:1],8,2-6[8:1],2,7b<4[8:1],7b,
{16},,,,3,4,{8}5/2,{16},,6,5,4/7,,,1x,
4x,3x,4,2,5,4,5,3,6,5,{8}6,{16}8bx,7,8,7,
8,7,8,7,8,7,8,7,8,7,,,{8}1x>4[8:1],1,
7p3[8:1],7,1>4[8:1],1,7p3[8:1],7,1b,1bh[8:15],
{4}E8,E2,E7,E3,
E7/B6,E3/B3,B5/B4/E5,B8f/Cf/B1f/B7f/B2f/E7f/E3f/A7/D8/D2/A2,
E
