&title=Retribution ~ Cycle of Redemption ~
&artist=Ardolf vs. Daily天利
&first=0
&lv_5=14
&des_5=test
&inote_5=
(225){4},,,5,
5,5,5,5,
5,5,5,5,
5,5,5,5,
5,5,{2}5,
E
&lv_6=14+
&des_6=miaowuu
&inote_6=
(225){4},{1},,,{4},{8},{16}E5,
E6,E7,E8,E1,E2,
E3,E4f,{8}4x,,,5,6/4,,3,
,4/2,,,7/5,8,,3,
2,7/1,,6,5/4,3,,2/1,
,5/4,,,B6/B7,B3/B2,,6/4,
5,4,,,5/3,5,,6/4,
,5/3,,,7/2,1,,8,
,8/1,,,2,4/3,,5/6,
,5/6,,,8h[8:1],{16},,,,8b,7/1pp2<6[16:119],
6/2,3/5pp6>2[16:117],{8}4b,,,,,,,,C,
,,,,,,,B8/B4,
,,,,,,,C,
,,,,,,,E8/E4,
,,,,,,,E2/E6,
,,,,,,,B7/B6/B2/B3,
,,,,,,,E7/E3,
,,,,,,,8h[2:3],
,,3,,,3,
,2>4[16:1],,,,6,{4}6h[8:3],
{8},8h[2:1],,,,1h[1:1],,2-5[16:1],
,2,,6,,7,8,1h[4:1],
,5,{16},,6,7,{8}8h[8:13],3,,3-6[16:1],
2,3,,,,5,6,7,
,3,,4,5h[8:13],{16}4,3,2,1,{8}8-4[8:1],
,8,{16},,,,B4,B3,B2,B1,B8,B7,B6,B5,
,,{8}3b-7-1-5[4:3],,,6/Cf,,,7,
,8b-4-6-2[4:3],,,1/Cf,,,2,
,3b-6-1-4[4:3],,,5/B5f,,,6,
,7b-3-5-1[4:3],,,1/C,,,2,
,3b-8-5[4:3],,,6/B2,,,7,
,8bz4[1:3],,,B1/B2,,,B7/B6,
,1h[8:3],,,,8h[8:3],,,,7b-4b[1.0667##0.1333],
,,,Cfh[8:5],,,,7b,
{1},{4},,,{16},,{24}2b<3[4:5]*>1[4:5],
B2,C,{4}B6,{1},{4},,{16},,{24}5bv2[0.5333##0.2667]*v8[0.5333##0.2667],
E5/E6,E4/E7,{4}A3/A7,{8},5b,{24},,,,,,,,,1bp5[0.5333##0.1333]*q5[0.5333##0.1333],
D2/D1,A2/A8,{4}D3/D8,{8},1b,{16},,5x,5x,
5x,5x,{8}5x,5-1[16:1],6,7,8-4[16:1],1,2,
{1}3h[16:1],
{8},7/8-4[8:1],8,8/1,,1/2>4[8:1],,2/1,
,6/5<8[8:1],5,4/5,,1,2,{16}3,5,
{8}4,6,6,{16}3xh[16:1],4xh[16:1],3xh[16:1],4xh[16:1],3xh[16:1],4xh[16:1],2xh[16:1],5xh[16:1],2xh[16:1],5xh[16:1],
2xh[16:1],5xh[16:1],1xh[16:1],6xh[16:1],1xh[16:1],6xh[16:1],1xh[16:1],6xh[16:1],8xh[16:1],7xh[16:1],8xh[16:1],7xh[16:1],,,,,,,{8}5/3,
2,2-4[8:1],,2/8,8-4[8:1],1,
{4}8/2,{8}2,2/3-7[8:1],,3,{16},1,{8}6,
{16}1x,2x,{8}7xh[4:1]/3x-1-4-8-5-7[4:3],{16},,A3,A2,A1,B2,A4,B4,C,A8,B7,B6,
A5,A6,{8}A7,{4}Ch[4:3],{8},,,,,3/7,
,6/2-7[16:1],7,8/2>5[16:1],,2/1,
8,6/7-4[16:1],,7/3,{16},,3,5,3,5,2,6,
2,6,{8}1/7<4[16:1],,7/8>3[16:1],8,8/4,,5-8[16:1],
2,2-6[16:1]/5-3[16:1],,5/2,,2b-7[16:1]/6b-3[16:1],8b/4b,2b/6b,
{24},,,6,5,6,{8}5,7/4,8/3,{24}1,2,1,{8}2,8/3,
7/4,{24}6,5,4,3,2,1,8/4<3[2:1],,,{8}4,{16}4b,A5,A6,A7,A8,A1,
A2,A3,{8}Ch[1:1],{16},,,,,,,,,,,,,,1,
2,{8}3,{16}2,3,{8}4,{16}3,4,5,7,6-1[8:1],5,
1,2,{8}6b/3-8[16:1],,3,{16},,8,7,6,5,{8}1/4-6[8:1],
2,4/3,,3,{16}5,4,{8}6h[8:1]/3h[8:1],{16},,1,8,
2,7,{8}3-5[16:1],,7-1[16:1]/3-1[16:1],,7/3,,2,
{16}2/1>4[8:1],8,7,6,{8}5/1,B6/B7,B2/B3,6,{16}4,5,{8}4,
{16}5,6,8/7-5[16:1],1,{8}2,7-1[16:1],,2-5[8:1]/7-4[8:1],,2/7,
,1-5[16:1]/8-4[16:1],,1-3[16:1]/8-6[16:1],,8/1,{16},,4,5,
4,5,{8}4-2[16:1]/5-7[16:1],,4-8[16:1]/5-1[16:1],,4/5,,2/7,
,2bh[4:1]/Ch[16:1],,6bh[4:1]/Ch[16:1],,4bh[4:1]/Ch[16:1],,,,5/4,
5,5/6,5,5/3,5,5/7,
5,5/2,5,5/8,5,5/1x,2x/5-7[16:1],5/3x,
5/4x,4,4/8,4,4/1,4,4/7,4,
4/2,4,4/6,4,4/5,4>5[4:1],4/5,{16}4,D3,
D1,D7,,,{8}2-6[8:1],2,8-4[8:1],8,1-5[8:1],1,
7-3[8:1],7,8-4[8:1],8,1-5[8:1],1,2-6[8:1],2,
4,4,4,4h[8:1]/7-3[8:1],,4/7,{4}4,
{16}2,7,2,7,1,8,1,8,{8}1,2b/7b,{16},3b/6b,,,{1}4b/5b,
{8},,,,,,,,,1h[4:1],
,,,1b-3-5-7-1[2:15],,,,B6,
,C,,B2,,,,B1,
,,,B3,,,,B4,
,E3,,E1,,,,B5,
,,B6,B2,,,,,,,,,,,,E5,
,B6,,E8,,,,E3,
,,,E6,,,,E5,
,Ch[4:1],,8h[4:1],,,,7h[4:1],
,,,6h[4:1],,,,5h[4:1],
,,,4h[4:1],,,,3h[4:1],
,,,2h[4:1],,,,1h[4:1],
,,,8z4[8:29],,8,
,4,,4,,3,,3,
,2,,2,{24},,,1bs5b[8:13],2,3,{4}4,
{1},{4},,{8},{16}3b,
4b,{8}3b,{16}6b,5b,
{8}6b,{16}2b,1b,{8}2b,8b,7b,6b,5b,4b,
3b,2b,{16}1b,8b,7b,6b,5b,4b,{24}3bh,2b,1b,8b,7b,6b,5b,4b,3b,
2b,1b,8b,{96}7b,,,6b,,,{32}5b,4b,3b,2b,1b,8b,7b,6b,5b,4b,3b,2b,1b,8b,{8}7b<7b[8:61],{1},,,{4},,,{8},4,
{4}4h[8:1],
{8},5,{4}5h[8:1],6,5,
{8}4,3,,3h[8:1],,2<7[8:13],{1},{4},,,{16},,{24}1bz5[2:3]*s5[2:3],
2/8,3/7,{4}4/6,
{1},{4},,{16},,{24}8b-4[2:1],
7/1,6/2,{4}5/3,
{8},,,,,5/4,{4}6/3,
{8}6/3,7/2,{16}8/1,7,2,6,3,5,{24}4,5,4,{4}1b<5[8:3],
{8}2,2h[8:1],,3,{24},,,5,6,7,{8}8b<5[8:3],3,
8,2,{16},,2,3,{8}4,6b,5b,4b,
3b,{16}8,7,6,5,{24}4,3,2,1,8,7,{96}6/1,,,2,,,{32}3,4,5,6,7,8,1,2,3,4,
5,6,7,8,1,2,3,4,5,6,7,8,{64}1xh,D2,2x,D3,3x,D4,4x,D5,5x,D6,6x,D7,7x,D8,8x,D1,{8}1bx-3-7-5b[4:7]*-7-3-5b[4:7],,,,,,,,,,,,,,,,,,5h[8:1]/4h[8:1],
,5h[8:1]/4h[8:1],,4h[8:1]/5-8b[8:1],,5/3-6b[16:1],,3/7-2b[16:1],
,7/3-6b[16:1],,3/1-4b[16:1],,1/2-7b[16:1],,2/5-8b[16:1],
,5/4-1b[16:1],,4h[16:1]/6-1b[16:1],6,6/2-5b[16:1],,2/4-7b[16:1],
,4/5-2b[24:1],,5/1-6b[24:1],,1/8-3b[24:1],8,8/4,
,5/4,6,3/4-1b[16:1],2,4/2v7b[16:1],,2/5v8b[16:1],
,5/4v1b[16:1],,4/6v3b[16:1],6,6/2v7b[16:1],,2/8<5b[16:1],
,8/1-5b[16:1],,1/8>3b[8:1],{16}7,6,{8}8/5-3b[16:1],,5-7b[16:1],
,5/4-8b[16:1],,4/3-1b[16:1],,8h[16:5]/3-5b[16:1],,3,
{16},,4,3,2,1,8,4,5,6,{8}7/8b-5[16:1],,1/8b-3[16:1],
,7/8b-5[16:1],,1/8b-3[16:1],1,2b-7[16:1]/8b-5[16:1],,8/2b-4[16:1],
,2b-7[16:1],,2bh[8:1]/6b-3[16:1],6,6b-1[16:1],,2b-5[16:1]/6b-3[16:1],
,6/2b-7[16:1],,2b,,2b-6[16:1]/8b-6[16:1],8b/2b,2b-4[16:1]/8b-4[16:1],
,2b/8b,{16},,,,1b-4b[8:1],7b,{8}2b,1b/8b-5b[8:1],8b,
,,2b/1b,3b/4b,5b/6b,8b/7b,,3b/2b,
{4}6b/7b,{16}4b/5b,5b/4b,{8}4b/5b,,2b-5b[16:1]/7b-4b[16:1],,7b/2b,
{16},,8b/1b,2b/7b,6b/3b,4b/5b,{8}1b-5b[16:1]/8b-4b[16:1],2b/7b,8b/1b,{4}Ch[8:5],
{8},,,5,6,7-5[16:1],,7/8,
,1-7[16:1],2,3/1,,3-1[16:1],4,5/3,
,5-3[16:1],6,7/5,,7-5[16:1],8,7/1,
,8v3[16:1],1,8/7,,1v6[16:1],2,1/8h[4:1],
,5h[4:1],,6,4,{16}5,3,5,3,5,6,
7,8,{8}5/1,1/4,3/1,2/1,{24}8,7,6,{8}5,{16}1,2,
3,4,{8}6/5,{24}2-5[16:1],3,4,5,,,{8}2,{16}8,7,6,5,4,3,
2,1,{24}8h,7,6,1h/5h[8:1],2,3,4h[8:1],,,{8}5,4b/5b,,1b/8b,
3b/4b,5b/6b,{16},,4,3,{8}2,1-5[16:1],1,1/7-4[16:1],
7,7/3-8[16:1],3,3/5,6,6,1-5[16:1],1,
1/6-3[16:1],6,6/2-7[16:1],2,2,{16}4,5,6,7,{8}1/8,
2,3/7,4,5/6,{24}8,7,6,5,4,3,2,1,8,7/4-1[16:1],,,{8}6/3,
4,5,6,7,{24}1b/8-4[24:1],2,3,,,,{8}8,
3,4,5,6/4,7,{24}8b/1>3[16:1],7,6,{8}1,{16}7b/1,6,
{8}5,4/3,2/5,1/6,8/7,{24}7/8b<6[16:1],1,2,,,,{8}8-4[16:1],
1,{24}1b/8,2,3,,,,{8}6,5,{16}3,4,3,4,{8}3,
5/2,{24}5,6,7,{8}8,1-5[16:1],2,1b/3>8[16:1],3,3b/6<1[16:1],
6,6b/4p8[16:1],4,{24}4b/8x>3[16:1],7x,6x,{8}5x,8bx/5-2[16:1],5,5b/3-6[16:1],
3,3b/1b-5b[16:1],1b,1b,,7h[8:1]/5h[8:1],,4h[8:1]/2h[8:1],
,6,{16}6,7,{8}8<4[8:1],8,{24}4,3,2,1,8,7,6,5,4,
3,2,1,8b/5b,,,{8}7b/6b,6b/5b,5b/4b,{16}3,4,3,4,,8,
7,8,{8}7,6/1,5/2,3/4<7[8:1],5/2,{16}4/3,,,2bh[32:1],
8bh[32:1],3bh[32:1],7bh[32:1],4bh[32:1],{8}6bx/5bx,2bx/1bx,6bx/5bx,{16}2bx/1bx,8,7x,6,5x,4,
3x,1h,2x,3,4x,5,{24}6x/1xh,8,7,6,5,4,3bx,2,1,8,7,6,5bx/1bxh,2,3,
4,5,6,7bx,8,1-4b[1.5111##0.1333]`5-8b[1.5111##0.1333],6/2,7/3,8/4,1bxpp6[1.3333##4.2667]`5bxpp2[1.3333##4.2667],{48},,,,,,,{16}5xh[16:5]/1xh[16:5],{1},{32}1b/5b/Cfh[16:1],
E2/E6,B6/B2,E8/E4,{4}A8/A4,
E
&lv_7=1
&des_7=
&inote_7=
(225)
E
