&title=son of sun
&artist=Sampling Masters MEGA
&first=0
&lv_5=14
&des_5=kaminski
&inote_5=
(200){4},5b<5[2:7],{1},,,{4},,,{16}3h[16:3],
,,4,,,{8}4,3/5,2/6,
{2}1/7h[2:1],{4}5,{8}4,4,
{4}3,2,{8}1,1,{4}8,
{8}7,7,6,6,{4}5,4h[4:1],
{16},,,,3h[16:3],,,4,,,{8}4,3/5,2/6,
{2}7/1h[2:1],{4}2,2,
{8}3,3,4,4,{4}5h[8:1],4h[8:1],
4h[8:1],{16}5,4,5,4,5b,3,6,3,6b,2,7,2,
7b,1,8,1,{8}8b-4[8:1],7,8/1-5[8:1],2,1/8-6[8:1],7,
8/1>4[8:1],2,{4}1/8,{8}2/6,5,3/8,1,
{4}7b,{8}2-5[8:1],3,2/7-4[8:1],6,7/1-6[8:1],2,
1/3,3,{4}3b,{8}3/5,4,8/7,2,
{4}1b,{8}4/6,3,4/6,7,4/6,2,
4/6,8,4/6,2,3/8,7,1/5,4,
{16}8b,1,2,3,{8}4v1[8:1],3,4/5-8[8:1],6,5/4,3h[8:1],
,3,4,{16}4,5,4,5,4,5,3,6,3,6,
2,7,2,7,1,8p3[16:3],{8}1bp3[8:1],,,,5bV36[8:1]/2b-7[8:1],
,,,8-4[8:1],,,,8w4[8:1],
,,,1bp3[8:1]/7p3[8:1],,,,1q5[8:1]/7bq6[8:1],
,,,4-8[8:1],,,,1bw5[8:1],
,,,1-5[8:1]/8b-4[8:1],,,,2bq8[8:1]/7b-4[8:1],
,,,2,5,3,6,{16}8,1,
2,3,4,5,{4}6bw2[8:1],,8b-6[8:1]*-4[8:1],
8b-5[8:1]*-3[8:1],8b-2[8:1],8h[2:1],{8}7,6,
{16}5,4,3,2,{8}1h[8:1],5,4h[8:1],8,{4}2b,
2b,{8}1h[8:1],7,8h[8:1],2,{4}5b,
5b,{8}3h[8:1],7,1h[8:1],5,{4}4b,
8b,{8}3h[2:1],5,6,7h[8:1],{16},,2h/6h,5h/1h,
{4}8h/4h,{8}5h[8:1],3,6h[8:1],7,{4}4b,
4b,{8}3-6[8:1],3h,2v5[8:1],2h,{4}1b,
8b,{8}5-8[8:1],5,4-1[8:1],4,{4}6b,
6b,{16}2-5[8:1],,,4,{8}2,1,8/7,6/1,
{16}5/2,4,3,2,{4}1bqq5[2:5],,,,4b,
,,,6b,
{8},,,,,,1-4[8:1],
8-5[8:1],1-6[8:1],8-3[8:1],1-5[8:1],8,
{4}1,6b,,,,6b,
,,,4b,
{8},,,,,,3/5,
4/6,5/7,6/8,1/7,8/2,
{16}1/3,4,5,6,{4}7b-4[8:1],2b/7b,6b/8b-5[8:1],
8b/1b,4b/2b-6[8:1],2b/6b,3b/4b-1[8:1],
4b/7b,5b/6b-3[16:3],6b/2b,{8}8b-4[8:1],7b,
8b,1b,1,2,{16}3,4,5,6,7,8,1,2,
{4}3b/7b,1b/8b-5[8:1],8b/7b,4b/3b-7[8:1],
3b,4b-1[8:1],4b/5b,6b/7b-4[8:1],
5b,3b-6[1:1],{2}3b,
{16},,,,,,,,,,,,2b-6[8:1],2,2,2,
{4}2,4b/5b<1[2:3],{8},,,,,,,,,,,,,5b,
{4}5b>1[2:3],{2}5b,
{4},,,,,5b-2[2:3]/2b-7[2:3],
{8},,,,,,,,,,,,,3b,
{4}3b-7[2:1],{2}3b/5h[2:1],
{16},,,,4,5,4,5,4,5,4,5,4,5,4,5,
{4}4b,1/5b<8[8:1],5/1,5/1<6[8:1],
5/1,1/5<8[8:1],5/1,5/1<6[8:1],
5/1,4/8b>3[8:1],4/8,8/4>1[8:1],
4/8,4/8>3[8:1],4/8,8/4>1[8:1],
{16}4/8,7,6,5,4,3,{8}2,2,2,2/3-6[8:1],2,
2/3,2,2/3,2,2/3-6[8:1],2,2/3,2,
2,1,8,7,6,5,4,4,
4/5-8[8:1],4,5/4,4,5/4,4,4/5-1[8:1],4,
{4}4/5b,{8}7>2[8:1]*q3[8:1],7,{4}7<4[8:1]*-4[8:1],7b,
{2}8b,{4}6/5-1[8:1],6/5b,
,6-3[8:1]*V42[8:1],6-1[8:1]*-2[8:1],6b,
5b,{32}5bw1[2:1],6,7,8,1,2,3,4,{2}5b,
{8},,4-7[8:1]*-6[8:1],4,{4}4>1[8:1]*p8[8:1],4b,
{2}5b,{4}1p5[8:1]*q5[8:1],1b,
{16},,,,4,5,4,5,4,5,4,5,4,6,3,5,
4,6,3,5,4b,3,6,5,4,3,6b,5h,4h,3h,6h,5h,
{4}4b,{8}8-5[8:1],2,8,1,4-7[8:1],2,
4,1,8-5[8:1],2,8,1,4,2,
{4}3b,{8}8-5[8:1],7,8-3[8:1],1,8v5[8:1],7,
8v3[8:1],1,8<5[8:1],7,8>3[8:1],1,8-4[8:1],8,
{4}8b,{8}6-4[8:1],4v7[8:1],6,2,8-3[8:1],1-4[8:1],
8,1,6-2[8:1],5-3[8:1],6,5,8-4[8:1],8,
{4}8b,{8}7-3[8:1],7,1>4[8:1],1,8-5[8:1],8,
1-5[8:1],1,8v3[8:1],8,1p5[8:1],1,{4}8>8[4:7],
{1}8b,
E
