&title=1/6
&artist=ぼーかりおどp
&first=1.559999
&lv_5=13
&des_5=野良ヨル
&inote_5=
(125){4},,,,{8},4>5[8:35],
{1},,,,{4},,,5h[32:1]/4h[32:1],
5h[32:1]/4h[32:1],{8}3/6-1[8:1],3,3,3,
3/1-5[8:1],3,3,3,3/5-2[8:1],3,3,3,
3/2-7[8:1],3,3,3,{2}7/3-6[8:1],
6-3[8:1]*-1[8:1],8p4[8:1]/4p8[8:1],
2s6[8:1]/6z2[8:1],{8}6/3-8[8:1],6,6,6,
6/8-4[8:1],6,6,6,6/4-7[8:1],6,6,6,
6/7-2[8:1],6,6,6,{2}2/6-3[8:1],
3-6[8:1]*-8[8:1],1q5[8:1]/5q1[8:1],
7z3[8:1]/3s7[8:1],{8}6,5,6,5,
4,5,4,3,{4}4h[4:1],6q3[4:1],
,{8},B7,B8,B1,B2,B3,
B4,B5,B6,B7,{2}8p6[2:1]/1q3[2:1],
,6/8-5[8:1],
3/1-4[8:1],8-6-4[4:1]/1v3[4:1],
{4},{8},6<2[8:1]/2v4[8:1],5/3,6/2,,6>4[8:1],
7,6,,8>5[8:5],1-4[8:3],8,A1,A2,
{2}A3,{8}8-4[8:1],8,1-5[8:1],1,
7>3[4:1],7,{4},{8}1h[8:1],{4},{8}7q3[8:1]/3q7[8:1],
Ch[8:1],{4},{8}6h[8:1]/8-5[8:1],,2h[8:1]/8-3[8:1],,6h[8:1]/8-5[8:1],
,2h[8:1]/8-3[8:1],,6h[8:1]/8-5[8:1],,4h[8:1]/8-3[8:1],,2h[8:1]/8w4[8:1],
,8b,,6h[8:1]/2h[8:1],,7h[8:1]/3h[8:1],,6h[8:1]/2h[4:1],
,7h[8:3],{4}2h[4:1],{8},8h[8:1]/3h[8:1],,1h[4:1],
,5b,,7h[8:5]/2h[8:1],,1h[8:1],,8h[2:1],
,7h[8:1],,6,4b,5b,6b,7b,
{2}8bp1[4:1],{4}3h[4:1],{8}5,4,
3,E4,B3,B2,,E2,,5-8[8:5],
6,7,8,1-4[8:1],B1,1,,8/1,
7/2,3h[8:1]/6q3[8:3],,Cfh[4:1],{4},,4h[4:1],
3h[2:1],{8}2h[4:1],{4},{8}2-5[8:1]/3-5[8:1],
{4},{8},6h[8:1],7h[8:1],8h[8:1],7h[2:1],6h[8:1],
,8h[8:1],{4},{2}5h[4:1]/7qq5<8[1:1],
{48}D1,E1,C,E5,{12}D5,{16},{48},{8}1-4[4:1],1h[8:1],{4},,1/2h[4:1],
{8}4,3,{4}2/3h[8:1],8/7h[4:1],
{8}5,6,{4}6h[8:1]/7v4[4:1],{8},1,,2/3h[8:1],
,5,{4}7/6h[8:1],{8}4,3h[8:1]/2v5[4:1],{4},4,
2pp4[4:1]/7qq5[4:1],{2},{4}6h[4:1],
7h[4:1],1,{8}4>3-1[4:1],3,
{4}4,{8}8<7-5[4:1],7,{4}8,{8}4qq2>3[4:1],3,
{4}4,{8}5<6<7>8>1<6[1:1],6,{2}5,
{4},,,4/5h[4:1],
{8}4-1[1:2],5-8[8:15],{1},,{4},6h[4:1],
{8}5h[8:1],4h[8:1],
3h[8:3],{4},{8}4h[8:1],{2}5h[4:1],
{4}8xh[16:1]/1xh[16:1],8xh[16:1]/1xh[16:1],{8}2/8-5[8:1],2,2,2,
2/6-1[8:1],2,2,2,2/1v4[8:1],2,2<7[4:1],2,
{4},{8},7/1-4[8:1],7,7,7,7/3-8[8:1],
7,7,7,7/8v5[8:1],7,7>2[4:1],7,7,
{4},,{8}5/4,5,5/6,5,
5/3,5,5/7,5,5/2,2-4[16:1],2,2-5[16:1],
{4},{8},7/1h[8:1],7,7/4h[8:1],7,7/2h[8:1],
7,7/3h[8:1],{4}6-1-4b[4:3],{2}6p4b[2:1],
{4},,{8}3-6[1:1],3,3,3,
3,3,3,3,3,3,,7-5[8:1],
6,7,,1-6[8:1],1,1,1,1-6[8:1],
1,1,1,1-6[8:1],1,1,1,1<5[4:1],
1,1,{4},{8}8-4[16:1],8,8/1-5[16:1],1,
1/8-6[16:1],8,8/1-5[16:1],1,1/7-5[16:1],7,7,1h[4:1],
,5h[4:1],,4,3,2,1,8h[8:5],
,1,2,3,4b,3b,2b,1b,
,8<6[4:1],7,6>4[4:1],5,4>2[4:1],3,2<8[4:1],
1,8<8[8:3],{4},,{8},3,
3-6[8:1]*p6[8:1],4-1[8:5],{4},{8},B6,B7,E8,
B8,2p7[8:3]/3q7[8:3],{4},,,{2}6pp8[8:1]*qq5[8:1],
{8}B7/B6/B5/B4/B3/B2/B1/B8/E1/E5,B7/B6/B5/E5/B4/B3/B2/B1/E1/B8,{4}5-2-4[4:1]*-8-6[4:1],
,{8},4-1[16:1]/5-8[16:1],6/3,5/4,,8h[8:1]/1h[4:1],
{4},8h[4:1],{8}1h[8:1],7h[8:3],{4},{8}2>4[4:1],
7,7,6,{2}5,
{8}2-4[16:1],2,2,2-5[16:1],2,2,2-6[16:1],2,
2,2-7[16:1],2,2h[4:1],{4},{8},7-5[16:1],
7,7,7-4[16:1],7,7,7-3[16:1],7,7,
7-2[16:1],7,{4}7h[8:3],{2},{4}5xh[8:1]/6xh[8:1],
4xh[8:1]/3xh[8:1],C,{8}B6,C,
B3,E8,E1,E2,4,3,2,1,
{4}8h[4:1],{8}1-5<4[1:1],1,{2}1/2h[1:1],
{4},,,5/4h[4:1],
{8}5-8[1:2],4-1[8:15],{1},,{4},6h[4:1],
5,
6h[4:1],7,3h[4:1],4,
3h[4:1],2,3b/1b,6,
8b/2b,5,7b/1b,4,
7b/5b,2,6b/4b,1,
5b/3b,4,{8}4,5,4,3,
{4}4h[4:1],5qq5pp5[4:15],{2}B1,
,B1,
,B1,
,B1,
{4}C,C,4h[4:1]/B4,{8}5-3[8:1],4,
{4},{8},7h[8:1],6>5qq3[2:1],{4},{8}4h[2:1],
{4},,2x/8x-6[16:1],8/2-4[16:1],
2/8-6[16:1],8/2-4[16:1],{2}2/8,
{8}6-3>6b[4:3],4h[8:1],{4},{8},B7,C,B3,
,4qq2>3[4:1],{4}3,,{8},2/7h[400:399],
4,2,4,B4f,Cf,B2f,{4}B3f,
{1}6>8[2:1]*pp8[2:1],
{4}5/3-8[8:1],5,5/3-8[8:1],5,
5/3-8[8:1],5,5/3-8[8:1],5,
5/3-8[8:1],5,{2}5/3qq7[2:1],
{4},,{8}3b<6[4:1],2b,1b,8b,
7b,4,3,2,{4}5h[4:1]/1-4[8:1],1,
{8},7s3[8:3]/6z2[8:3],E8/E6,7/6,{4},{16},,{64}7,E7,B6,B5,{16},{64}1,
E2,B2,B3,{16},{64}8,E8,B7,B6,{16},{64}2,E3,B3,B4,{16},{8}5pp5[4:1]*qq4[4:1],{4},,{8},3qq7[8:3]*qq1>2q7[8:3],
{4},,,1/7-4[8:1],
1/7,1/7-4[8:1],7/1,
1/7-4[8:1],7/1,7/1-4[8:1],7/1,
7/1-4[8:1],1/7h[4:1],,6h[8:1]/7qq5<8[4:3],
{48}A7,B7,C,B3,{12}A3,{16},{48},{8}1-4[4:1],1h[8:1],{4},,{8}7<5[8:1],
8,7/2>4[8:1],1,7-4[8:1],8,2-5[8:1],1,
2/8-6[8:1],7,8/1-3[8:1],2,1,{4},{8}6pp2[8:3],
2,6,{4},{8},6-8[8:1],5,6-1[8:1],
5,6-8[8:1],5,6-1[8:1],5,6,{4},8/7-5[8:1],
7/8,7/8-5[8:1],7/8,
1/8-4[8:1],8/1,8/1-5[8:1],8/1,
2/1-4[8:1],1/2,1/2-4[8:1],2/1,
{8},E6,E5,E4,{4},5-8[8:13],
{8}4-1[8:11],E5,{1},{4},,5<8[2:3],
4>1[4:5],A5/E5/A4,{1},{4},5<2[4:11]/4>7[4:11],
{1}A5/E5/A4,
,,{4}3h[4:1],
2h[4:1],3h[4:1],4h[4:1],
{2}3h[4:1],{4}6/7b,8,
7/8b,5,2/1b,4,
6b/1,7,8b/2,4,
7/2b,5,6b/2,8,
8/3b,1>8[4:11],{1},,{4},{16}B6,
C,{8},{2}B7,
E1,
