&title=Light of Love
&artist=ARForest/sta
&first=0
&des=staheARF.
&des_5=
&lv_5=14
&inote_5=(165){4},,,,,,,,,,,,{1}3/6>5s1<8z4>3[4:11],
,2h[2:3],
{2},4h[2:1],
{1}6>5s1<8z4>3[4:11],
,7h[2:3],
{16},,,,,,,,D3,D2,D1,D8,D7,D6,D5,D4,
{2}2xh[2:1],{4}3,{8}5x,4/6h[8:3],
,5x,{4}5V38[8:3],{2}E7/A6/B6,
7xh[2:1],{4}6,{8}4x,5/3h[8:3],
,4x-7[6:1],{4}4-1[6:1],,,{2}2xh[2:1],
{4}3,{8}5x,4/6h[8:3],
,5x,{4}5V38[8:3],{2}E7/A6/B6,
7xh[2:1],{4}6,{8}4x,5/3h[8:3],
,4x,{4}4>5b[8:3],,,3x-8[4:1],
4,5-2[4:1],6,
7-4[4:1],8,1-6[4:1],2,
3xV17[4:1],5,6V42[4:1],8,
1V75[4:1],3,4V28[4:1],6,
{8}7x,7h[8:1],5,5,6/4,6,5/3,3,
2x,2h[8:1],4,4,3/6,6,4/7,7,
{16}5bx,8,4,8,3,8,2,8,1bx,7,1,6,1,5,1,4,
E3,B2,B1,E1,E7,B6,B5,E5,D2,A2,A3,D4,D6,A6,A7,D8,
{4}1bx,1h[4:1],{16}4x,5x,6x,7x,{8}8xq5[16:3],4x>1[16:3],
{24},,,,,,E6,E7,{6}E8,{48}3pp2[4:1],,,4,,,{16}2,5,,,,,{4}8,
8h[4:1],{16}6x,5x,4x,3x,{8}2xq7[16:3],6x>3[16:3],
{24},,,,,,E8,E1,{6}E2,{48}6,,,4,,,{16}5,3,6,4,5,3,
{4}7xh[4:1],{8}5,3,{32}6x/1xh[8:1],5x,,,,,2x/8xh[8:1],3x,,,,,1x/7x-4[8:1],6x,,,,,,,,,,,{8}3,
2,{32}6x/1xh[8:1],5x,,,,,2x/8xh[8:1],3x,,,,,1x/7x-4b[8:1],6x,,,,,,,,,,,{8}3,
2,{32}6x/1xh[8:1],5x,,,,,2x/8xh[8:1],3x,,,,,1x/7x-4[8:1],6x,{16}5x-2b[8:1],
,,,,,,,,E5,B5,B6,E7,E3,B3,B4,E5,
{4}8bxh[8:3],{16}4bx,3,2,1,A8/B8,7,6,5,4x,3,2,1,
A8/E8/E1,7,6,5,4x,3,2,1,A8h[8:1]/E8h[8:1]/E1h[8:1],7,6,5,4x,3,2,1,
{4}4bx/8bxh[4:1],{16}5x,6,7,8,A1/B1,2,3,4,5x,6,7,8,
A1/E1/E2,2,3,4,5x,6,7,8,A1h[8:1]/E1h[8:1]/E2h[8:1],2,3,4,5x,6,7,8,
{4}1bx/5bx,{8}4,6,{32}3x/8xh[8:1],4x,,,,,7x/1xh[8:1],6x,,,,,8x/2x-5[8:1],3x,,,,,,,,,,,{8}6,
7,{32}3x/8xh[8:1],4x,,,,,7x/1xh[8:1],6x,,,,,8x/2x-5b[8:1],3x,,,,,,,,,,,{8}6x,
7x,{12}8x/4x,3,2,5x/1x,6,7,
{8}4x/8x,{16}3,4,{8}2h[8:1],{16}5,4,{8}7h[8:1],{16}5,6,{32}3bx<4z8>1s5<6[4:15],4,5,6,7,8,1,2,
{1}D1f,
,,,3<4z8>1s5<6[2:7],
{2},,,,,,2xh[2:1],
{4}3,{8}5x,4/6h[8:3],
,2x,{4}2-5V38[2:1],{2}E7/A6/B6,
7xh[2:1],{4}6,{8}4x,5/3h[8:3],
,4x<7[16:3],{4}4>1[16:3],,,{2}2xh[2:1],
{4}3,{8}5x,4/6h[8:3],
,5x,{4}5-1-4-2[2:1],{2}E7/A6/B6,
7xh[2:1],{4}6,{8}4x,5/3h[8:3],
,4x,{4}4pp4b[8:3]*qq4b[8:3],,,6x-1[4:1],
5,4-7[4:1],3,
2-5[4:1],1,8-3[4:1],7,
6xV82[4:1],4,3V57[4:1],1,
8V24[4:1],6,5V71[4:1],3,
{8}2x-5[8:1],2,1,8,7x-2[8:1],7,6,5,
4x-7[8:1],4,3,2,1x-4[8:1],1,8,7,
{16}6bx,2,5,2,4,2,3,2,8bx,3,8,4,8,5,8,6,
A7,E8,B7,B6,C,B2,B3,E4,{4}A3,8xz4[16:3],
{2}2x-6b[8:1],{8}8bx/4bx>1[8:1],7<4[8:1],4pp3b[4:1],7,
,,{4}2<3[4:1],2bx/1bx,8,
{8}8<5[8:1]/2,4>1[8:1]/6,8-4[8:1],4,{4}8xbw4b[8:1],8bx,
1bx>6qq7[8:5],4xqq8b[8:3],,,2h[4:1],
4,{8}4bx/7bx-4[8:1],3-7[8:1],7>5b[4:1],3,
{4}5qq6[4:1],8-5[8:1],8bx,1,
{8}5-2[8:1],8-5[8:1]/2,5-1[8:1]/6,8,{4}1xbw5b[8:1],1bx,
1bx>6pp4[8:5],4xqq5b[8:3],,,C,
{32}B2,A3,E4,A4,B6,A7,E8,A8,{4}1bxV35[4:1],{8}5V71[4:1],7,
{4}1V35[4:1],{8}5-7[8:1],7-1[8:1],{2}1xbV35[16:3]*-5b[16:3],
{4}8<5[8:1],{32}4,3,2,1,,,,,{4}4xb-7[8:1],4/1-6[8:1],
1/3-8[8:1],3,{32}5bxw1b[8:1],6x,7x,8x,1x,2x,3x,4x,,,,,,,,,{4}7x/3x,
{8}5,3,{4}8bxV64[4:1],{8}4V28[4:1],2,
{4}8V64[4:1],{8}4-2[8:1],2-6[16:3],{4}1xb,{8}1,1,
3,4/3,6,6/5,3,5/1,6,8/4,
{16}3x,7,3,7,2x,6,2,6,1x,5,2,6,1x,5,2,6,
{4}Cf,3b/7b,{16}4bx/3bx-8[16:1],{32},,,,6bx-3[16:1],7x,,,,,1bx-5[8:1],2x,,,,,,,,,,,{4}4xh[4:1],
{32}6xw2b[8:1],7x,8x,1x,2x,3x,4x,5x,,,,,,,,,1x>4[8:1],
8,7,6,,,,,{4}1b,{32}8xV25[8:1],7,6,5,,,,,{4}8b,
{32}1x>4[8:1],8,7,6,,,,,{4}1b,{24}6bx,7,8,1,2,3,{4}4bx-7b[8:1]/2bx-5b[8:1],
{2}2b/4b-8[8:1],{16}5bx/6bx-1[16:1],{32},,,,3bx-6[16:1],2x,,,,,8bx-4[8:1],7x,,,,,,,,,,,{4}5xh[4:1],
{32}3xw7b[8:1],2x,1x,8x,7x,6x,5x,4x,,,,,,,,,{4}1bx>4[8:1]/5bx<8[8:1],
1bx/5bx,{16}2bx,6,2,4,3,5,4,6,
1bx,5,1,4,3,5,4,6,3,3,6,5,7,7,2,1,
{1}D5f/6x>5s1<8z4>3b[2:7],
,,,{8}2,
2,5,6,3,3,5,6,
2,2h[8:1],4,5,6,6h[8:1],4,3,
2/5,3,4,5,3/6,4,5,6,
3<4z8b[2:5],4,5,6>5s1[8:17],
E
