&title=Elixir
&artist=Lime /Kankitsu
&first=0
&des=Good Elixir
&lv_5=14
&des_5=
&inote_5=(140){4},,,,,,,,
4>6[8:4]/5,5,5,5,7pp2[8:4]/5,5,5,5,
{4}5/3-8>1-6[2:1],5,5,5,7>5[2:1]/5,6,7,8b,
{16}34,,6,6,5,,4,4,5,,7,5,6,5,7,,64,,2,2,4,,6,6,4,,1,6,2,5,3,,
7,7,5,6,2,2,4,3,{24}7,6,5,{16}2,4,3,5,4,6,
{8}1b,,,,{16}8,8,4,4,3bx/7bx,,,,
5,,E4,,5,A2,,,5,,E4,,5,A2,,,6,,B4,,6,D3,,,6,,B4,,6,1,2,3,
4x,,E6,,4,A7,,,4,,E6,,4,A7,,,3,,B5,,3,D7,,,2-5[8:1]/6-1[8:1],,37,,2b/6b,,,,
3,4,2,4,3,3h[16:3],,,6,5,7,5,6,6h[16:3],,,
4,5,2,4,3,3h[16:3],,,5,4,7,5,6,6,4,5,
{16}2,4,3,6,1,1h[16:3],,,{16}7,5,6,3,8,8h[16:3],,,
{24}1,2,3,{16}6,5,6,5,6,5,{24}8,7,6,4,3,2,7,6,5,3,2,1,
{8}6h[4:1]/8-4[8:1],,8,{16}7,8,1<6[8:1],,,,21,,,,
{32}4-8[8:1],3x,,,,,,,4,,,,,,,,4<7[8:1],,,,,,,,4,,,,{16}1,2,
{4}3qq4qq5[8:6],5,6,7,
{16}8h[16:3],,,5h[16:3],,,6h[16:3],,,3h[16:3],,,7,,56,,
{8}8qq1[8:2],,8,,4qq5[8:2],,{16}4,,8,7,
{8}6pp5[8:2],,6,,{16}2pp1[8:2],,,1,2,,8,,{16}6,6,8,8,4,4,2,2,{24}8,7,6,{16}2,4,3,5,4,6,{8}1bh[8:2],,,,{32}6,5,4,3,2,1,8,7,2,3,4,5,6,7,8,1,
{2}2bx-6[4:7]/5b,,,{4},,4h[1:1],,,,5w1[4:2],,,,
{8}E8/E1,E7,E6,E5h[8:7]/E4,,,,,,,E3,,E4/E6,,E5/E7,,
E2/E1,E3,E4,E5h[8:7]/E6,,,,,,,E7,,E8/E2,,E1/E3,,
1xpp4>7[4:6],,,,7,,,,6h[4:1],,,,5h[4:1],,,,3<1[4:4],,,,
1,,,,2,,,,3/4w8[8:1],,,,
2V48[8:3],,8,8V62[8:3],,5,5,,{4}5q1[4:1],1q5[4:1],5V71[4:1],2,
{8}2V48[8:3],,8,8V62[8:3],,5,5,,{4}8<4[4:1],4>8[4:1],8w4[8:1],,
1x/7x<3[8:3],{16},,3pp8[4:2],2,{4}1,,,2,
{16}3h[8:1]/4h[8:1],,,4h[8:1]/5h[8:1],,,5/6,,1b,,,,,,,,,,,,,,,,
3,3,,5,5,,3,6,4,5,3,6,1-5[8:1],,,,
{4}1b>4[8:1]/6b<1[8:1],6-4[12:1]/1,2<7[8:1]/6,2/6-1[8:1],4<7[8:1]/6,4/2-5[8:1],
2/8-4[8:1],{16}38,,3,2,
{4}1-5[8:1]/6,7-1[12:1]/1,7<4[8:1]/4>1[8:1],7/4-8[8:1],2<7[8:1]/4,2/5w1[8:1],5,37,
{16}1b,1,4,3,5,4,7,7,5,6,3,4h[16:3],{24}2x,1x,8x,7x,6x,5x,
{16}8b,8,5,7,4,6,2,2,4,3,6,5h[16:3],{24}7x,8x,1x,2x,3x,4x,
{16}1,6,3,4,1x,1x,1x,1x,8,3,6,5,8h[96:1],8h[96:1],8h[96:1],8h[96:1],
{24}7/1,6,5,{16}2,2,{24}6,5,4,{16}1,1,
{32}6,5,4,3,2,1,8,7,2,3,4,5,6,7,8,1,
{4}2b/Cf,,,{32},,,,,,,,8,1<6[8:1],2h[32:6],,,,,,{4},{32}2,3,4,5,6,7,8,1,2qq7[8:3],3,4,5,6,7,8,1,
{8}2/5b,,6<3[8:2],5,26,3,4-1[8:1],5,4/6-3[8:1],7,6/8-5[8:1],1,28,{16}3,,{24}6,4,6,{8}1h[8:1],
{16}7h[8:1],3x,4x,5x,1h[8:1],6x,5x,4x,8,3,{24}6,5,6,{16}1,7,{24}3,4,3,
{16}8h[8:1],2x,3x,4x,1h[8:1],6x,5x,4x,8,3,{24}6,5,6,{16}1<6[8:1],7,{24}3,4,3,
{8}1bpp4[8:3],,5/1,7,8<5[8:1],1,3/8,2,
4-1[8:1]/1,2,4-7[8:1]/7,6,4>1[8:1]/8,2,{24}8/4,7,6,{16}5h[8:1],,
8h[8:1],5x,4x,3x,1h[8:1],4x,5x,6x,{16}1,7,{24}3,4,2,{16}8,1,{24}6,5,7,
{16}1hx[8:1],6x,5x,4x,8h[8:1],3x,4x,5x,{24}8,1,2,3,4,5,{32}7pp2[8:2],8,1,2,3,4,5,6,
{8}7/3b,,4<1[8:2],3,1p5[8:1]/4,3,4>2[8:1],3,
4/7-3[8:1],6,1v4[8:1]/7,2,6<1[8:1]/1,5,{24}16,2,3,4h[8:1],,,
{16}7h[8:1],3,2,1,5h[8:1],7,8,1,{16}7,3,{24}6,5,8,{16}2,6,{24}3,4,1,
{16}7h[8:1],2,3,4,1h[8:1],6,5,4,{24}1,8,7,6,5,4,{32}2,1,8,7,6,5,4,3,
{8}7b-4[8:1],68,1,2,3-8[8:1],24,5,6,
7-4[8:1],8,1-6[8:1],2,3-7[8:1],4,5,6,
{24}1,2,3,{16}6,6,{24}2,3,4,{16}7,7,{24}3,4,5,{16}8,8,{24}4,5,6,7,8,1,
{32}72,6,5,4,3,2,1,8,7pp4b[8:3],6,5,4,3,2,1,8,{8}7b,,,,
{8}6h[4:1]/2>5[8:1],,2,{16}7,8,1>4[8:1],,,,71,,,,
{32}8-4[8:1],7x,6x,,,,,,8,,,,,,,,1>4[8:1]/7,,,,,,,,1,,,,{16}5,6,
{4}7qq1[8:2],1,3qq5[8:2],5,
{16}6h[8:1],,8,7h[8:1],,1,8h[8:1],,2,4h[8:1],,3,{32}5,6,7,8,1,2,3,4,
{16}5bx,,62,3,84,,73,4,15,,48,7,62,5,84,,
2x/6x,,73,6,51,,26,5,48,,15,2,37,4,51,,
7x,7,5,6,2,2,4,3,8,8,4,6,1,1,5,3,
{24}7b,6,5,{16}2,2,3,3,2,2,A8,A7,A6,A5,{32}1b,8,7b,6,5b,4,3b,2,1bs5z1[4:3],
