&title=Melodiniq
&artist=onoken a.k.a. owl*tree
&first=0.03
&des_5=-
&lv_5=14+
&inote_5=(193){4},,,,
{2}3-1-4-7-5[4:14],,,,,,
{6},,,,,,
{12}7h[6:1],,5,6,4,5,
{12}2h[6:1],,4,3,5,4,
{12}7h[6:1],,5,6,4,5,3,4,2,3,1,1,
{2}E7h[2:4],E6h[2:3],E4h[2:2],E3h[2:1],
{32}Cf/B2/B7,E8/E2/E1/B1/B8/A7/D8/D1/D2/A2,8x<1[8:17]/1x>8[8:17],,,,,,
{1},,{4},,,
{4}E7/E3/Chf[4:4],,,,
{8}8<4[8:4],,5,5>1[8:4],,2,2<6[8:4],,
{8},,4,4-8-2[4:2],,5,,7,
{8}7-4[4:1],,5,5-2[4:1],,8,8<3[8:4],,
{8}1,1pp5[8:4],,,,,,,
{8}8,7,6,5,4/7,6,5,4h[8:2],
{8},6,5,4,3/E7h[8:2],2,1,8,
{8}7/1,2,3,4,5/2,3,4,5h[8:2],
{8},3,4,5,6/E3h[8:2],7,8,1,
{8}2/8,7,6,5,4/7,6,5,4h[8:2],
{8},2,2V86[8:3],,,,,,
{16}E7h[24:11]/E3h[16:8]/B6h[16:9]/B3h[16:10]/B5h[16:11]/B4h[16:12]/E6h[12:10]/E4h[12:11],,,,,,,,{16},,,,,,,,
{16}7,2,7,2,6,3,6,3,{32}E5,E4,E3,E2,E1,E8,E7,E6,{32}D5,D4,D3,D2,D1,D8,D7,D6,
{16}D5/E5/Cf,,,,2/4,,3,4,2-5[8:1],,1,,2/8,,7,,
{16}6-4[8:1],,4-8[8:1],,6,,1,,2-5[8:1],,3,1,2,,7,,
{16}8/6,,,,7/5,,6,5,7-4[8:1],,8,,7/1,,2,,
{16}3-5[8:1],,5-1[8:1],,3,,8,,7-4[8:1],,6,8,7,,2,,
{16}1/3,,2,4,3,4,2,4,1,2,3,4,5/6,,7,,
{16}8/6,,7,5,6,5,7,5,8,7,6,5,4/8,3,2,1,
{16}8/4,3,2,1,5,4,3,2,6,5,4,3,7,6,5,4,
{16}8,1,2,3,7,8,1,2,6,7,8,1,5,6,7,8,
{4}4v3[8:1]/1,7-5[8:1],1-6[8:1],4-8[8:1],
{4}4-2[8:1]*-1[8:1],4-6[8:1]*-7[8:1],4,{16}4,3,2,1,
{4}5v6[8:1]/8,2-4[8:1],8-3[8:1],5-1[8:1],
{4}5-7[8:1]*-8[8:1],5-3[8:1]*-2[8:1],5,{16}5,6,7,8,
{16}1h[8:2]/4,,E4,E3,A2,,8h[8:2]/5,,E5,E4,A3,,
{16}7h[8:2]/1,,E2,E3,A3,,6h[8:2]/8,,E1,E2,A2,,
{16}4/5,6,7,8,1/4,3,2,1,
{16}8h[8:2]/5,,E6,E7,A7,,1h[8:2]/4,,E5,E6,A6,,
{16}2h[8:2]/8,,E8,E7,A6,,3h[8:2]/1,,E1,E8,A7,,
{8}4/5,6/Ch[8:3],,,
{1}8bV24x[4:11]*V64b[4:11],
,,{4},,,{8},{16}5,5,
{8}4h[8:2],5,6,4h[8:2],5,6,4,7V58-4[8:5],
{8},4,3,2,1,1,2,3,
{8}5h[8:2],4,3,5h[8:2],4,3,5,2,
{16}E7h[24:11]/E3h[16:8]/B6h[16:9]/B3h[16:10]/B5h[16:11]/B4h[16:12]/E6h[12:10]/E4h[12:11],,,,,,,,{16},,,,,,,,
{8}8<3[8:4],,,,3q1[8:3],,,1V75[8:3],
,,,3,2,3,4,4-2[8:1],
,C,,6,7,6,5,5-7[8:1],
,C,,3h[8:2],,6,7,8,
{8}1>6[8:4],,,,6p8[8:3],,,8V24[8:3],
,,,6,7,6,5,5-7[8:1],
,C,,,4,4,3,4-2[8:1],
,C,,,6,5,4,3,
{16}2/5,,3,4,3,,6,5,6,7,6,,1,,2/8,,
{16}3,4,3,4,3,,7,8,7,6,7,,2,1,2,,
{16}7/4,,6,5,6,,3,4,3,2,3,,8,,7/1,,
{16}6,5,6,5,6,,2,1,2,3,2,,7-2[8:1],8,7,,
{8}3,3,3,{16}3,4,{8}5,5,5,{16}5,6,
{16}7,8,1,2,3,4,5,6,{16}7/D3,D2,D1,D8,D7,D6,D5,D4,
{8}Ch[8:5]/E3/D3,,,{16}B3,B4,{8}E5,B8/B7,,1,
(196)
{32}1b,2/8,3/7,4/6,{8}5V74[8:3],,3,3,,2,1V35[8:2],
{8},7,6<3[8:2],,6qq4[8:2],,,,
{8}1,8,7V15[8:2],6,7,,,{16}3,3,
{8}4,2,1>5[8:2],,{12}5qq4[8:2],6,7,{8}8^5[8:1],,
{4},{16}1,2,3,4,{12}6,6,6,{16}4,3,2,1,
{12}8,8,8,{4}B5,{12}4,4,4,{24}E3,E2,E1,E8,E7,E6,
{8},3,3>7[8:2],,4,4pp6[8:2],,3,
{8}3,2,1pp1[8:2],8,1,6,7,8,
{32}8b,7/1,6/2,5/3,{8}4V25[8:3],,6,6,,7,8V64[8:2],
{8},2,3>6[8:2],,3pp5[8:2],,,,
{8}7h[8:2],8,1h[8:2],8-4[8:1],7h[8:2],8,,{16}7,5,
{16}6,5,7,,1,8,1,8,{12}1,2,3,{8}4^1[8:1],,
{8},,{16}7,8,7,8,{12}7,6,5,{16}4h[8:1],,2,,
{12}1,1,1,{4}B4,{12}5,5,5,4,3,2h[24:8],
{8},{24}8,7,6,{8}5,,3,3,2,1,
{16}8,1,8,1,8,1,8,1,8,1,8,1,2b/7b,,,,
(206){32}Cf/3,4,5,6,7,8,1,2,{24}3,4,5,6,7,8,{16}1,5,5,3,{12}3,7,7,
{12}1,1,{16}6,2,7,3,8,4,{24}1,2,3,4,5,{32}6,7,8,1,2,3,4,5,
{24}6h[16:4],,,3,2,1,8h[16:4],,,4,5,6,7h[16:4],,,2,3,4,5h[24:5],,,1,8,7,
{16}6/E5,B4,{24}B3,B2,E2,{16}7,6,{24}5,4,3,
{16}E8,B8,{24}B1,B2,E3,{16}4,5,{24}6,7,8,
(209){24}2,3,4,5,6,7,{24}8,1,2,{16}3,4,{16}5,1,1,3,{12}3,7,7,
{12}2,3,4,{16}6/5,4,3,2,{24}1/8,7,6,5,4,3,{32}2,1,8,7,6,5,4,3,
{8}1-5[8:1],1,4-7[8:1],4,2-6[8:1],2,5-1[8:1],5,
{8}2V48[8:2],2,8,{24}8,7,6,{8}5,{24}1,2,3,{8}4,{24}1,8,7,
(212){32}Cf/6,5,4,3,2,1,8,7,{24}6b,5,4,3,2,1,{16}8,4,4,6,{12}6,2,2,
{12}8,8,{16}3,7,2,6,1,5,{24}8,7,6,5,4,{32}3,2,1,8,7,6,5,4,
(215){16}3h[16:4],6,7,8,1h[16:4],5,4,3,2h[16:4],7,6,5,4h[16:2],8,1,2,
{16}3/E5,B5,B6,B7,E8/2,3,4,5,
{16}6/E2,B1,B8,B7,E7/5,4,3,2,
(218){32}1x>6[32:5]/5x<2[32:5],2x>7[32:5]/6x<3[32:5],3x<8[32:5]/7x>4[32:5],4x<1[32:5]/8x>5[32:5],,,,,1b/5b,,,,,,,,
{16}A8,A7,A6,A5,A1,A2,A3,A4,
{24}7,6,5,{24}B2,B3,E4,{24}B6,B5,E5,{24}1,2,3,{24}8,7,6,{24}B3,B4,E5,{24}B7,B6,E6,{24}2,3,4,
(221){8}8-4[8:1],{24}4,3,2,{8}8,1-5[8:1],{24}5,6,7,{8}1,8v3[8:1],7-4[8:1],
{8}8,7,2b,,{12}1,1,1,8,8,8,
(224){32}7/1,2,3,4,{24}5,6,7,{24}8,1,2,{16}3,4,{16}5/6,4,3,2,{12}1/8,7,6,
{12}5/2,2,{16}2,4,5,6,7,8/1,{24}2,3,4,5,6,{32}7,8,1,2,3,4,5,6,
(227){8}8-4[8:1],8,5-2[8:1],5,7-3[8:1],7,4-8[8:1],4,
{8}7-5[8:1],7,2-6[8:1],2,4,4,{16}3,5,3,5,
(230){24}2,3,4,6,7,8,2,3,4,6,7,8,{16}2,1,2,1,{12}3,8,4,
{24}7b,6,5,4,3,2,1,8,7,6/2b,3,4,5,6,7,8,1,2,{32}3/6b,5,4,3,2,1,8,7,
{1}6/4bw8[4:3],
{4},,,,
(236)
{8}3/6h[8:1],,4/6h[8:1],4,6h[8:1],5,6h[8:1],5,
{8}7-5[8:1],5-8[8:1],,,2,2,2/1h[8:1],2,
{8}A3h[8:1]/8h[8:1],,{24}7,6,5,{8}4,3h[8:1],4-8-6-3[8:3],3h[8:1],A4f,
{8},,1,1,7,7,8-4[8:1],8,
{8},,6/2h[8:1],6,1h[8:1],5,2h[8:1],4,
{8}2-4[8:1],4-1[8:1],,,7,7,7/8h[8:1],7,
{8}6/1,,1-3[8:1],1b-7[8:1],1b-4[8:1],1b-6[8:1],1bpp5[4:3],A1f,
{8},,,,,,,,
{8}7h[8:1],,{16}E5,E4,E3,E2,{8}E1h[8:1]/7V51[8:2],7,,2,
{8},2,{16}5,6,7,8,{8}E2h[8:1],E8h[8:1],E3h[8:1],E7h[8:1],
{8}2h[8:1],,{16}E5,E6,E7,E8,{8}E1h[8:1]/2V48[8:2],2,,7,
{8},7,{16}4,3,2,1,{8}E8h[8:1],E2h[8:1],E7h[8:1],E3h[8:1],
{8},4/5,2b/7b,,6,6,6/5,6/4,
{8}6/3,3,3/5,3/6,3,4/5,3/6,2/7,
{8}Ch[8:1],,1,1,2/8,2/8,3/7,3/7,
{16}2,4,2,4,2,,7,5,7,5,7,,3/6,,1/8,,
(240)
{8},E7h[8:1]/E3h[8:1],Cf/E5/B4/B5/E1/B1/B8,,,5,4,3,
{8}2-5[8:1],2,1,8,7V51[8:2],7,4,3,
{8}2-4[8:1],,2-8[8:1],E8,2-6[8:1],E5,2,A7,
{8},8,8,1,{12}2,3,4,8,7,6,
{8}1/5,2-4[8:1],4-6[8:1],2,{12}7,8,1,2,3,4,
{8}5-1[8:1]*-8[8:1],,5,,4-8[8:1]*-1[8:1],,4,,
{24}7x,5,7,5,,,,,,2x,4,2,{8}4,,6/5,7/5,
{8},3/4,2/4,,5w1[8:1]/4,,5,,
{8}3b/7b,,6-4[8:1],4-8[8:1],6,3,2,2-5[8:1],
{8},7>3[8:2],,3V57[8:2],,{16}7,8,1,2,3,4,
{8}5h[8:1],{24}1b,8,7,{8}6,{8}4h[8:1],{24}8b,7,6,{8}5,
{8}3h[8:1],{24}7b,6,5,{8}4,{8}2h[8:1],{24}6b,5,4,3,2,1,
{8}8p4[8:1]*q4[8:1],,8,,
{8}2/6,1-5[8:1],7,1,{12}8,7,6,4,3,2,
{12}8,7,6,5/4,3,2,7,6,5,4/3,2,1,
{8}4h[8:1],{24}8b,1,2,{8}3,{8}5h[8:1],{24}1b,2,3,{8}4,
{8}6h[8:1],{24}2b,3,4,{8}5,{8}7h[8:1],{24}3b,4,5,6,7,8,
{8}1q5[8:1]*p5[8:1],,1,,
{16}3/7,,,,2,1,2,1,3,8,3,8,4,7,4,7,
{16}Cf,,,,7,8,7,8,6,1,6,1,5,2,5,2,
{16}5b,4,3,2,5/1,8,7,6,1b/5,4,3,2,1/5,8,7,6,
{16}5/1b,2,3,4,1/5,6,7,8,5b/1,2,3,4,5/1,6,7,8,
{16}5b/1,,3,4,3,6,5,6,2,3,4,5,8,7,6,5,
{16}8/4,,2,1,2,7,8,7,1,2,3,4,7,6,5,4,
{24}1,2,3,7,6,5,2,3,4,8,7,6,
{24}B8/B7,B6,B5,B4,B3,B2/B1,7xh[8:0],6xh[8:0],5xh[8:0],2xh[8:0],3xh[8:0],4xh[8:0],
{32}E1h[32:1],E2h[32:1],E3h[32:1],E4h[32:1],E5h[32:1],E6h[32:1],E7h[32:1],E8h[32:1],
{32}1h[8:0],2h[8:0],3h[8:0],4h[8:0],7xh[8:0],6xh[8:0],5xh[8:0],4xh[8:0],
{32}8,7,6,5,4,5/3b,6h[8:0]/2bh[8:0],7h[8:0]/1bh[8:0],{4}8w4[8:1],
{1}8b<8[8:46]*>8[8:46],
{2},,,,,,,,,,,4-1-3[2:11]*-7-5b[2:11],
E
